osu file format v5

[General]
AudioFilename: NiceBoat.mp3
AudioLeadIn: 0
PreviewTime: -1
Countdown: 1
SampleSet: Soft
StackLeniency: 0.7
Mode: 0

[Metadata]
Title:Nice Boat.
Artist:NicoNicoDouga
Creator:neo@lex
Version:Hard

[Difficulty]
HPDrainRate:6
CircleSize:6
OverallDifficulty:6
SliderMultiplier:1.4
SliderTickRate:1

[Events]
//Background and Video events
0,0,"NiceBoat.jpg"
1,0,"NiceBoat.avi"
//Break Periods
2,22610,24499
2,28191,29034
2,81214,81360
//Storyboard Layer 0 (Background)
//Storyboard Layer 1 (Failing)
//Storyboard Layer 2 (Passing)
//Storyboard Layer 3 (Foreground)
//Storyboard Sound Samples
//Background Colour Transformations
3,100,163,162,255

[TimingPoints]
5725,348.837209302326,4,2,0,50
42004,348.837209302326,4,2,0,100
44794,348.837209302326,4,1,0,100

[HitObjects]
256,96,5724,2,0,L|352:96,4,70
256,192,6771,2,0,L|160:192,4,70
384,192,7818,1,0
256,96,8515,2,0,L|160:96,4,70
256,192,9562,2,0,L|352:192,4,70
128,192,10608,1,0
224,192,10957,1,0
288,288,11306,1,0
448,128,12004,6,0,L|352:128,1,70
320,128,12352,1,0
192,128,12701,2,0,L|64:128,1,70
64,128,13050,2,0,L|64:288|160:288,1,210
160,288,13748,2,0,L|384:288|384:64,1,420
288,64,15143,2,0,L|192:64,3,70
160,64,15841,1,0
288,110,16887,6,0,L|288:57|223:57|223:161|435:162|341:288|96:288|32:160|179:160,1,1120
288,176,20027,6,0,L|384:176,3,70
352,128,20724,1,0
288,32,21073,2,0,L|160:64,1,70
160,64,21422,2,0,L|160:224,1,140
160,320,22120,2,0,L|256:320,1,70
288,320,22469,1,0
160,256,25608,6,0,L|160:160,3,70
160,128,26306,1,0
224,32,26655,2,0,L|352:64,1,70
352,64,27004,2,0,L|352:224,1,140
352,320,27701,2,0,L|256:320,1,70
224,320,28050,1,0
384,192,30143,6,0,L|384:288,2,70
384,64,30841,1,0
160,64,31538,2,0,L|160:160,1,70
160,192,31887,1,0
416,160,32585,2,0,L|352:160|352:64|288:128|288:256|352:288,1,420
320,64,34329,2,0,L|224:64,2,70
192,64,35027,2,0,L|96:64,2,70
128,160,35724,2,0,L|416:160,1,280
256,192,36771,12,0,38864
256,33,39213,5,0
143,35,39562,1,0
144,147,39911,1,0
255,145,40259,1,0
367,145,40608,1,0
368,257,40957,1,0
255,259,41306,1,0
143,264,41655,1,0
160,160,42004,6,0,L|256:160,1,70
288,160,42352,2,0,L|288:64,1,70
224,96,42701,2,0,L|128:96,1,70
96,96,43050,2,0,L|96:192,1,70
96,224,43399,2,0,L|192:224,1,70
224,224,43748,2,0,L|320:224,1,70
352,224,44097,2,2,L|352:64,1,140
256,192,44794,12,4,50026
256,192,50375,2,0,L|256:96,2,70
256,320,51073,1,0
256,192,51421,2,0,L|256:64,4,70
320,288,52468,1,0
400,210,52817,1,0
287,171,53166,6,0,L|287:119|212:119|212:223|425:223|352:352|96:352|32:224|173:224,1,1120
64,128,56654,6,2,L|160:128,1,70
192,128,57003,1,0
320,128,57352,2,2,L|448:128,1,70
448,128,57700,2,0,L|448:288|352:288,1,210
352,288,58398,2,0,L|128:288|128:64,1,420
224,64,59793,2,0,L|320:64,3,70
352,64,60491,1,4
290,109,61538,6,0,L|290:51|196:51|196:160|416:160|324:288|96:288|32:160|152:160,1,1120
256,128,64677,6,2,L|352:128,3,70
390,128,65375,1,0
326,32,65724,2,2,L|198:64,1,70
198,64,66073,2,0,L|198:224,1,140
198,320,66770,2,0,L|294:320,1,70
324,320,67119,2,2,L|322:136,8,140
219,280,70259,6,0,L|219:184,3,70
219,152,70956,1,0
283,56,71305,2,0,L|411:88,1,70
411,88,71654,2,0,L|411:248,1,140
411,344,72352,2,0,L|315:344,1,70
283,344,72700,2,2,L|282:257,10,70
332,243,74794,6,0,L|332:339,2,70
332,130,75491,1,0
112,85,76189,2,2,L|112:181,1,70
168,154,76538,1,2
390,182,77235,2,0,L|326:182|326:86|262:150|262:278|326:310,1,420
358,64,78980,2,2,L|262:64,2,70
230,64,79677,2,2,L|134:64,2,70
166,160,80375,2,4,L|454:160,1,280
256,152,82468,6,0,L|257:236,6,70
256,33,83863,5,2
369,35,84212,1,0
368,147,84561,1,2
257,145,84910,1,0
145,145,85259,1,2
144,257,85607,1,0
257,259,85956,1,2
369,264,86305,1,0
352,160,86654,6,0,L|256:160,1,70
224,160,87003,2,4,L|224:64,1,70
288,96,87352,2,0,L|384:96,1,70
416,96,87700,2,4,L|416:192,1,70
416,224,88049,2,0,L|320:224,1,70
288,224,88398,2,4,L|192:224,1,70
160,224,88747,2,4,L|160:64,1,140
256,96,89445,5,0
256,160,89619,1,0
256,224,89794,1,0
368,224,90142,1,2
368,160,90317,1,2
368,96,90491,1,2
255,96,90840,1,0
256,160,91014,1,0
256,224,91189,1,0
192,224,91363,1,0
192,160,91538,1,2
192,160,91712,1,2
192,96,91887,1,2
64,96,92235,5,0
64,160,92410,1,2
64,224,92584,1,0
128,224,92759,1,4
128,160,92933,1,0
128,96,93107,1,2
192,96,93282,1,0
192,160,93456,1,4
192,224,93631,1,2
256,224,93805,1,4
256,160,93980,1,2
256,96,94154,1,4
320,96,94328,1,2
320,160,94503,1,4
256,160,94677,1,6
192,160,94852,1,6
135,79,95026,6,0,L|135:32|192:32|191:130|32:128|160:256|352:256|416:128|224:128,2,1050
256,192,100607,12,4,106189
