osu file format v5

[General]
AudioFilename: NiceBoat.mp3
AudioLeadIn: 0
PreviewTime: -1
Countdown: 1
SampleSet: Soft
StackLeniency: 0.7
Mode: 0

[Metadata]
Title:Nice Boat.
Artist:NicoNicoDouga
Creator:neo@lex
Version:Easy

[Difficulty]
HPDrainRate:4
CircleSize:3
OverallDifficulty:4
SliderMultiplier:1
SliderTickRate:1

[Events]
//Background and Video events
0,0,"NiceBoat.jpg"
1,0,"NiceBoat.avi"
//Break Periods
2,22610,24578
2,50168,55276
2,67261,69229
2,72842,73415
//Storyboard Layer 0 (Background)
//Storyboard Layer 1 (Failing)
//Storyboard Layer 2 (Passing)
//Storyboard Layer 3 (Foreground)
//Storyboard Sound Samples
//Background Colour Transformations
3,100,163,162,255

[TimingPoints]
5725,348.837209302326,4,2,0,51
41655,348.837209302326,4,2,0,100
56314,348.837209302326,4,1,0,100

[HitObjects]
304,88,5724,2,0,L|300:161|146:164|232:289|400:288|464:160|352:160,2,800
448,128,12004,5,0
256,256,12701,1,0
64,128,13399,1,0
256,256,14097,2,0,L|368:256,5,100
280,120,16887,6,2,L|284:193|438:196|352:321|184:320|120:192|232:192,1,800
448,288,20376,1,2
448,64,21073,2,2,L|240:64,1,200
248,288,22469,1,2
64,288,25957,5,0
64,64,26655,2,2,L|264:64,1,200
264,288,28050,1,2
384,320,30143,6,0,L|384:96,1,200
224,192,31538,1,0
447,287,32585,6,0,L|135:287,1,300
128,96,34329,2,2,L|336:96,1,200
416,320,35724,2,2,L|216:320,1,200
256,64,39213,5,0
256,288,39911,1,0
160,64,40608,1,0
160,288,41306,1,0
256,64,42003,5,0
256,288,42701,1,0
352,64,43399,1,0
352,288,44096,1,0
352,64,44794,5,2
128,64,45492,1,2
128,288,46189,1,2
352,288,46887,1,2
256,192,47585,12,0,50027
448,128,56662,5,0
256,256,57360,1,0
64,128,58058,1,0
256,256,58755,2,0,L|360:256,5,100
272,136,61546,2,0,L|276:209|430:212|344:337|176:336|112:208|224:208,1,800
448,320,65034,5,0
448,96,65732,2,0,L|232:96,1,200
240,320,67127,1,0
64,96,70616,5,2
64,320,71314,2,2,L|280:320,1,200
272,96,72709,1,2
128,288,74802,6,0,L|128:64,1,200
288,192,76197,1,0
64,288,77244,6,0,L|384:288,1,300
384,96,78988,2,2,L|168:96,1,200
96,320,80383,2,2,L|304:320,1,200
256,192,82476,5,0
256,192,83174,5,0
256,192,83872,5,0
448,64,84569,1,0
256,192,85267,1,0
64,320,85965,1,0
256,192,86662,5,0
64,64,87360,1,2
256,192,88058,1,0
416,320,88755,1,2
256,192,89453,5,0
32,192,90151,1,4
256,192,90848,1,0
480,192,91546,1,4
256,192,92244,5,0
256,192,92593,1,2
256,192,92941,1,0
256,192,93290,1,4
256,192,93639,1,2
256,192,93988,1,4
256,192,94337,1,6
256,192,94686,1,6
256,64,95034,2,0,L|252:137|99:142|243:262|337:261|416:136|304:136,2,750
256,192,100616,12,4,106197
