osu file format v6

[General]
AudioFilename: NicoNicoDouga - Sand Canyon x Minorin.mp3
AudioLeadIn: 2000
PreviewTime: 36354
Countdown: 1
SampleSet: Normal
StackLeniency: 0.7
Mode: 0
LetterboxInBreaks: 1

[Editor]
DistanceSpacing: 0.899999976158142
BeatDivisor: 4
GridSize: 8

[Metadata]
Title:Moruze Senshinkoku ToraDora!
Artist:NicoNicoDouga
Creator:Mafiamaster
Version:Insane
Source:
Tags:

[Difficulty]
HPDrainRate:6
CircleSize:5
OverallDifficulty:8
SliderMultiplier:1.4
SliderTickRate:1

[Events]
//Background and Video events
Video,0,"BLAH_xvid.avi"
0,0,"New BG.jpg"
//Break Periods
//Storyboard Layer 0 (Background)
//Storyboard Layer 1 (Fail)
//Storyboard Layer 2 (Pass)
//Storyboard Layer 3 (Foreground)
//Storyboard Sound Samples
//Background Colour Transformations
3,100,0,0,0

[TimingPoints]
226,378.310214375788,4,1,0,80,1,0
13656,-100,4,2,0,80,0,0
14790,-100,4,1,0,80,0,0
16682,-100,4,2,0,80,0,0
18195,-100,4,1,0,80,0,0
24357,-100,4,2,0,80,0,0
27572,-100,4,2,0,80,0,0
30410,-100,4,1,0,80,0,0
36165,-100,4,2,0,80,0,0
36543,-100,4,1,0,80,0,0

[Colours]
Combo1 : 0,0,255
Combo2 : 255,0,128
Combo3 : 255,128,0

[HitObjects]
32,320,226,1,2
96,320,415,1,0
112,296,509,1,0
128,272,604,1,2
192,272,793,1,0
208,296,887,1,0
224,320,982,1,0
288,320,1171,1,2
304,296,1266,1,0
320,272,1360,1,0
384,272,1550,1,2
448,272,1739,6,0,B|480:224|480:224|464:192|400:192,1,140,0|2
376,184,2212,1,0
344,192,2306,1,0
288,224,2495,1,0
256,240,2590,1,0
224,224,2685,1,2
192,208,2779,1,0
160,224,2874,1,0
128,240,2968,1,0
96,224,3063,1,2
64,208,3157,1,0
32,224,3252,5,0
32,160,3441,1,0
32,96,3630,1,2
96,96,3819,5,0
104,128,3914,1,0
128,152,4009,1,0
160,160,4103,1,0
192,152,4198,1,2
216,128,4292,1,0
224,96,4387,1,0
256,152,4576,1,0
288,96,4765,2,0,B|299:144|323:168|352:184|387:168|411:144|421:90,1,210,2|0
440,32,5522,1,4
440,32,5900,1,4
416,288,6278,5,2
352,320,6468,1,0
288,288,6657,1,0
224,320,6846,1,0
160,288,7035,5,2
144,256,7130,1,0
128,224,7224,1,0
192,224,7413,1,0
176,192,7508,1,0
160,160,7603,1,0
96,160,7792,2,0,L|64:240,2,70,2|0|0
128,96,8359,5,0
144,128,8454,1,0
160,160,8548,1,2
192,224,8737,1,0
208,256,8832,1,0
224,288,8927,2,0,L|304:288,1,70
360,288,9305,1,2
432,288,9494,1,0
432,216,9683,2,0,L|432:136,1,70,2|0
432,80,10062,5,2
364,80,10251,1,0
296,80,10440,2,0,L|216:80,1,70,2|0
160,80,10818,1,2
96,80,11007,1,0
72,104,11102,1,0
48,128,11196,1,0
96,176,11386,1,2
128,176,11480,1,0
160,176,11575,1,0
224,176,11764,1,2
256,176,11859,1,0
288,176,11953,1,0
320,176,12048,1,0
352,176,12142,1,2
416,176,12331,5,4
416,320,12710,1,2
384,320,12804,1,0
352,320,12899,1,0
368,256,13088,1,2
336,256,13183,1,0
304,256,13277,1,0
272,256,13372,1,0
240,256,13466,1,2
208,112,13845,5,2
320,112,14034,1,4
208,112,14412,1,2
320,112,14601,1,4
480,176,14980,5,4
480,320,15358,1,2
336,320,15736,5,2
304,320,15831,1,0
272,320,15925,1,0
240,320,16020,1,0
208,320,16115,1,2
144,320,16304,1,0
112,320,16398,1,0
80,320,16493,1,2
256,264,16871,5,2
256,152,17060,1,4
256,264,17439,1,2
256,152,17628,1,4
256,152,18006,1,2
112,32,18384,5,2
80,48,18479,1,0
64,80,18574,1,0
64,112,18668,1,0
80,144,18763,1,2
112,160,18857,1,0
144,160,18952,1,0
176,144,19046,1,0
192,112,19141,1,0
256,112,19330,5,2
288,112,19425,1,0
320,112,19519,1,0
384,112,19708,2,0,L|384:32,2,70,0|2|0
384,144,20181,1,0
384,176,20276,1,2
384,240,20465,5,0
384,304,20654,1,0
384,368,20843,2,0,L|464:368,2,70,2|0|2
352,368,21316,1,0
320,368,21411,1,0
288,368,21505,1,0
224,368,21695,5,0
192,368,21789,1,2
160,368,21884,1,0
96,368,22073,2,0,L|96:320,1,35,0|0
96,304,22262,2,0,L|96:240,1,35
96,240,22451,1,0
96,208,22546,2,0,L|16:208,2,70,2|0|2
160,208,23113,5,0
224,208,23302,1,2
288,208,23492,1,0
320,208,23586,1,0
352,208,23681,1,2
384,208,23775,1,0
416,208,23870,1,0
480,208,24059,2,2,L|480:243,2,35
480,144,24437,5,2
432,96,24627,1,2
384,144,24816,1,2
336,96,25005,1,2
288,144,25194,1,2
256,112,25289,1,2
224,80,25383,1,2
192,144,25572,1,2
144,96,25761,1,2
96,144,25951,1,2
48,96,26140,1,2
48,240,26518,5,2
96,192,26707,1,2
48,320,27086,5,2
80,288,27180,1,2
112,256,27275,1,2
144,320,27464,5,2
192,272,27653,5,2
224,272,27748,1,2
256,272,27842,1,2
288,272,27937,1,2
320,272,28031,1,2
352,272,28126,1,2
384,272,28220,1,2
448,272,28410,5,2
480,208,28599,5,2
448,176,28693,1,2
416,144,28788,1,2
384,128,28882,1,2
352,144,28977,1,2
288,144,29166,1,2
224,144,29355,5,2
192,144,29450,1,2
160,144,29545,1,2
128,144,29639,1,2
96,144,29734,1,2
96,208,29923,1,2
96,144,30112,1,2
96,80,30301,1,2
160,80,30490,6,0,L|272:80,1,105,4|0
304,80,30869,1,2
448,80,31247,1,0
448,224,31625,1,2
304,224,32004,1,0
448,224,32382,1,2
448,288,32571,1,0
384,288,32760,1,0
240,288,33138,1,2
96,288,33517,5,0
96,144,33895,1,2
160,144,34084,1,0
224,144,34273,1,0
288,144,34463,1,2
432,144,34841,1,0
432,208,35030,1,2
432,352,35408,1,2
368,352,35598,1,0
304,352,35787,2,0,L|304:272|384:272,2,140,2|2|4
208,240,36922,6,0,L|136:222,1,70,2|0
207,240,37300,2,0,L|275:257,1,70,0|2
208,240,37678,2,0,L|136:222,1,70,0|0
64,208,38057,5,2
64,144,38246,1,0
64,80,38435,1,2
128,80,38624,1,0
192,80,38813,1,2
224,80,38908,1,0
256,80,39002,1,0
288,80,39097,1,0
320,80,39191,1,2
464,80,39570,5,4
464,224,39948,5,2
464,288,40137,1,0
464,224,40326,1,0
464,160,40516,1,0
400,160,40705,1,2
400,32,41083,5,2
432,48,41178,1,0
448,80,41272,1,0
448,112,41367,1,0
432,144,41461,1,2
400,160,41556,1,0
368,160,41650,1,0
336,144,41745,1,0
320,112,41840,1,2
384,96,42029,5,2
384,96,42218,1,4
256,32,42596,5,2
224,32,42691,1,0
192,48,42785,1,0
176,80,42880,1,0
176,112,42975,1,2
192,144,43069,1,0
224,160,43164,1,0
272,112,43353,5,4
288,184,43542,1,0
264,208,43637,1,2
232,232,43731,1,0
168,208,43920,1,0
104,184,44109,2,0,L|104:312,1,105,2|0
104,320,44488,1,2
168,288,44677,5,0
200,288,44772,1,0
232,288,44866,1,2
264,288,44961,1,0
296,288,45055,1,0
360,288,45244,1,2
424,288,45434,1,0
488,288,45623,1,4
488,176,45906,5,0
488,176,46001,2,0,L|344:176,1,140,0|4
488,112,46663,1,0
488,112,46758,2,0,L|344:112,1,140,0|4
176,112,47514,5,0
176,48,47703,1,0
112,48,47893,1,0
80,48,47987,1,0
48,48,48082,1,0
48,80,48176,1,0
48,112,48271,1,0
48,256,48649,5,2
96,208,48838,1,0
144,256,49028,1,0
192,208,49217,1,2
240,256,49406,1,0
288,208,49595,1,0
336,256,49784,1,2
336,120,50162,5,2
336,192,50352,1,0
368,192,50446,1,0
368,224,50541,1,0
400,224,50635,1,0
400,256,50730,2,0,L|480:256,1,70,2|0
400,256,51108,5,0
432,312,51297,1,2
368,312,51487,2,0,L|288:312,7,70,2|0|2|0|2|0|2|0
232,312,53000,5,0
184,360,53189,1,2
136,312,53378,1,0
88,360,53567,1,0
40,312,53756,1,2
88,264,53946,2,0,L|104:248|112:264|128:248|136:264|152:248|160:264|176:248|184:264,2,140,0|4|0
40,216,54891,5,0
80,160,55080,1,0
112,176,55175,1,0
144,192,55270,1,0
208,192,55459,1,0
272,192,55648,1,0
336,192,55837,1,0
336,328,56215,5,0
480,328,56594,1,0
480,264,56783,1,0
416,264,56972,1,0
416,200,57161,1,0
384,200,57256,1,0
352,200,57350,1,0
32,48,57729,5,2
32,112,57918,1,0
32,176,58107,2,0,L|32:224,2,35
96,176,58485,5,2
96,240,58674,1,0
96,304,58864,2,0,L|96:352,2,35
160,304,59242,1,2
304,304,59620,5,2
368,304,59809,1,0
432,304,59999,1,2
464,304,60093,2,0,L|464:256,3,35,0|0|0|0
432,160,60755,5,4
368,160,60944,1,0
304,160,61133,1,0
256,200,61323,1,0
208,160,61512,1,2
256,120,61701,1,0
304,80,61890,1,0
256,40,62079,1,0
208,80,62268,1,2
256,120,62458,1,0
256,248,62836,5,0
192,248,63025,1,2
312,216,63403,1,0
256,248,63592,1,0
256,184,63782,5,2
192,200,63971,1,0
128,216,64160,1,0
144,248,64255,1,0
168,272,64349,1,0
200,288,64444,1,0
232,288,64538,1,2
288,320,64727,1,0
344,288,64917,1,0
336,256,65011,1,0
304,232,65106,1,0
272,224,65200,1,0
288,192,65295,5,2
352,192,65484,1,0
416,192,65673,1,0
432,160,65768,1,0
432,120,65862,1,0
424,80,65957,1,0
400,56,66051,1,2
352,96,66241,1,0
352,64,66335,1,0
352,32,66430,1,0
296,56,66619,1,0
296,120,66808,5,4
296,216,67092,1,0
200,216,67376,2,0,L|120:216,2,70
200,280,67943,2,0,L|200:315,2,35
264,280,68321,5,4
360,280,68605,1,0
456,280,68889,2,0,L|456:360,2,70,0|0|0
456,216,69456,2,0,L|456:168,2,35
80,32,69835,5,0
432,32,70213,1,0
256,288,70591,1,0
256,224,70780,1,0
256,96,71159,1,0
256,32,71348,1,0
256,224,71726,1,0
256,96,72104,1,4
