osu file format v6

[General]
AudioFilename: NicoNicoDouga - Sand Canyon x Minorin.mp3
AudioLeadIn: 2000
PreviewTime: 36354
Countdown: 1
SampleSet: Soft
StackLeniency: 0.7
Mode: 0
LetterboxInBreaks: 1

[Editor]
DistanceSpacing: 1
BeatDivisor: 4
GridSize: 8

[Metadata]
Title:Moruze Senshinkoku ToraDora!
Artist:NicoNicoDouga
Creator:Mafiamaster
Version:Hard
Source:
Tags:

[Difficulty]
HPDrainRate:6
CircleSize:4
OverallDifficulty:6
SliderMultiplier:1.4
SliderTickRate:1

[Events]
//Background and Video events
Video,0,"BLAH_xvid.avi"
0,0,"New BG.jpg"
//Break Periods
//Storyboard Layer 0 (Background)
//Storyboard Layer 1 (Fail)
//Storyboard Layer 2 (Pass)
//Storyboard Layer 3 (Foreground)
//Storyboard Sound Samples
//Background Colour Transformations
3,100,0,0,0

[TimingPoints]
226,378.310214375788,4,1,0,80,1,0
17817,-100,4,2,0,80,0,0
18195,-100,4,1,0,80,0,0
24346,-100,4,2,0,80,0,0
27572,-100,4,2,0,80,0,0
30410,-100,4,1,0,80,0,0
36165,-100,4,2,0,80,0,0
36543,-100,4,1,0,80,0,0

[Colours]
Combo1 : 0,0,255
Combo2 : 255,0,128
Combo3 : 255,128,0

[HitObjects]
64,64,226,2,8,L|144:64,1,70,6|0
200,32,604,2,0,L|200:112,1,70,2|0
168,168,982,2,0,L|248:168,1,70,0|2
304,200,1360,2,8,L|304:120,1,70,2|0
272,64,1739,2,0,B|352:64,2,70,2|0|2
200,64,2306,2,8,L|200:144,1,70,0|0
272,136,2685,2,8,L|272:216,1,70,2|2
344,208,3063,2,8,L|344:288,1,70,0|2
416,280,3441,6,8,L|496:280,1,70,0|2
472,352,3819,2,8,L|392:352,1,70,0|0
328,352,4198,2,8,L|248:352,1,70,2|2
184,352,4576,1,0
184,280,4765,2,4,B|128:216,3,70,4|0|0|0
88,176,5522,2,4,B|176:64,1,140
88,176,6278,6,0,L|168:176,1,70,2|0
160,248,6657,2,0,L|96:280,1,70,2|0
48,328,7035,2,0,L|128:328,1,70,0|2
192,328,7413,2,0,L|218:264,1,70,0|0
288,264,7792,6,0,L|314:329,2,70,2|0|2
256,200,8359,2,0,L|256:120,1,70,0|0
184,128,8737,2,0,L|184:48,1,70,2|2
256,56,9116,6,0,L|336:56,1,70,0|2
400,56,9494,1,0
472,56,9683,2,0,L|472:126,1,70,0|2
400,136,10062,6,0,L|400:216,1,70,0|2
472,208,10440,2,0,L|472:288,1,70,2|0
400,280,10818,2,0,L|330:280,1,70,2|0
328,352,11196,1,0
256,352,11386,2,0,L|256:282,1,70,2|0
184,280,11764,2,0,L|136:280,4,35
184,208,12331,5,4
328,208,12710,2,0,L|328:288,1,70,2|0
400,280,13088,2,0,L|400:328,4,35,0|0|0|0|2
400,136,13845,6,0,L|304:136,1,70
471,135,14412,2,0,L|401:135,1,70,0|0
400,280,14980,5,4
264,280,15358,1,2
128,280,15736,2,0,L|80:280,4,35,0|0|0|0|2
128,208,16304,2,0,L|208:208,1,70,0|2
128,88,16871,6,0,L|216:88,1,70
57,88,17439,2,0,L|153:88,1,70,0|0
128,208,18006,1,2
264,208,18384,6,0,L|344:208,4,70,2|0|2|2|0
264,280,19330,2,0,L|184:280,1,70,2|2
192,352,19708,2,2,L|112:352,1,70,0|2
120,280,20087,2,0,B|120:210,1,70,0|2
192,208,20465,6,0,L|272:208,1,70
264,136,20843,2,0,L|344:136,2,70,2|0|2
192,136,21411,2,0,L|192:56,1,70,2|0
264,64,21789,2,0,L|344:64,1,70,2|0
408,64,22167,2,0,L|408:134,1,70,2|0
408,208,22546,2,0,L|328:208,2,70,2|0|2
480,208,23113,6,0,L|480:278,1,70
408,280,23492,2,0,L|338:280,1,70,0|0
264,280,23870,1,0
264,208,24059,2,0,B|264:168,2,35
200,240,24437,6,0,L|200:170,1,70,2|0
136,208,24816,2,2,L|136:138,1,70,2|0
200,169,25194,2,2,L|200:89,1,70,2|2
136,138,25572,2,2,L|136:58,1,70,2|2
200,100,25951,2,2,L|200:20,1,70,2|2
272,32,26329,1,0
272,104,26518,5,2
272,176,26707,1,2
416,176,27086,2,2,L|416:128,2,35,2|2|2
416,248,27464,5,2
416,320,27653,2,2,L|368:320,6,35,2|2|2|2|2|2|2
488,320,28410,5,2
488,248,28599,2,2,L|488:213,4,35
416,248,29166,5,2
344,248,29355,2,2,L|309:248,4,35,2|2|2|2|2
344,176,29923,1,2
344,104,30112,2,2,L|424:104,1,70
400,32,30490,6,2,L|330:32,1,70,2|2
256,32,30869,2,0,L|116:32,1,140,2|0
48,152,31625,1,0
192,152,32004,6,2,L|262:152,1,70,2|2
336,152,32383,2,0,L|416:152,2,70
336,288,33138,1,2
192,288,33517,5,0
56,288,33895,2,0,L|56:208,3,70
56,80,34841,2,0,L|136:80,1,70
128,216,35408,2,0,L|224:216,1,70
272,216,35787,2,0,L|352:216|352:136,2,140,0|0|4
184,328,36922,6,0,L|97:307,5,70,2|0|0|0|2|0
48,296,38057,6,0,L|48:216,1,70
120,208,38435,2,0,L|120:278,1,70,2|0
192,280,38813,6,0,L|272:280,1,70
248,208,39191,2,0,L|328:208,1,70,2|0
320,280,39570,5,4
320,144,39948,2,0,L|400:144,4,70,2|0|0|0|2
320,280,41083,6,0,L|240:280,1,70
216,216,41461,2,0,L|296:216,1,70,2|0
360,216,41840,2,0,L|360:136,2,70,0|0|2
216,216,42596,6,0,L|120:216,1,70,0|0
160,288,42975,2,0,L|64:288,1,70,2|0
16,288,43353,5,0
16,216,43542,2,0,L|16:168,2,35,0|0|2
88,216,43920,1,0
160,216,44109,6,0,L|160:136,1,70,0|0
232,160,44488,2,0,L|232:230,1,70,2|0
304,216,44866,2,0,L|304:136,1,70
376,160,45244,2,0,L|376:240,2,70,2|0|4
256,352,47136,5,0
392,352,47514,2,0,L|392:272,1,70
464,280,47893,2,0,L|464:315,4,35
464,144,48649,5,4
464,72,48838,2,0,L|368:72,1,70
432,8,49217,2,0,L|336:8,1,70,0|4
394,71,49595,2,0,L|298:71,1,70,0|0
362,8,49973,2,0,L|266:8,1,70,0|4
324,71,50352,2,0,L|228:71,1,70,0|0
292,8,50730,2,0,L|212:8,1,70,0|4
254,71,51108,2,0,L|174:71,1,70,0|0
222,8,51487,6,0,L|142:8,7,70,0|4|0|4|0|4|0|4
120,72,53000,6,0,L|200:72,1,70
264,72,53378,2,0,L|334:72,2,70,0|0|0
264,144,53946,2,0,L|408:144,2,140,0|4|2
192,144,54891,5,0
144,88,55080,2,0,L|144:40,2,35,0|0|0
96,144,55459,2,0,L|16:144,2,70,2|0|2
144,280,56215,5,2
288,280,56594,2,0,L|288:360,2,70,0|2|0
360,280,57161,2,0,L|360:232,2,35,0|0|2
360,136,57729,5,0
432,136,57918,1,0
432,208,58107,2,0,L|467:208,2,35,2|0|0
360,208,58485,5,0
360,280,58674,1,0
288,280,58864,2,0,L|253:280,2,35,2|0|0
288,208,59242,6,0,L|288:64,1,140,0|2
216,72,59809,1,0
144,72,59999,2,0,L|144:24,4,35,0|0|0|0|4
144,208,60755,6,0,L|144:288,1,70,2|0
144,344,61133,2,0,L|224:344,1,70,2|0
288,344,61512,2,0,L|288:274,1,70,0|2
216,272,61890,2,0,L|216:192,1,70,0|2
216,128,62268,6,0,L|136:128,1,70,4|0
296,128,62836,2,0,L|376:128,1,70,4|0
256,216,63403,2,0,L|256:296,1,70,4|0
216,352,63782,6,0,L|296:352,1,70,2|0
360,352,64160,2,0,L|360:304,4,35,0|0|0|0|2
432,352,64727,1,0
504,352,64917,2,0,L|504:304,4,35,0|0|0|0|2
432,352,65484,5,0
440,280,65673,2,0,L|440:232,4,35,0|0|0|0|2
368,280,66241,1,0
368,208,66430,2,0,L|288:208,1,70
296,280,66808,6,4,B|184:280,1,105
88,280,67376,2,0,L|88:200,2,70,0|4|0
88,352,67943,2,0,L|136:352,2,35,0|0|0
16,352,68321,6,4,B|16:232,1,105
16,144,68889,2,0,L|96:144,2,70,0|4|0
16,72,69456,2,0,L|16:37,2,35
88,72,69835,6,0,L|248:72,2,140,4|0|4
88,144,70780,2,0,L|88:284,1,140
160,288,71348,2,0,L|160:144,2,140,0|0|4
