osu file format v6

[General]
AudioFilename: NicoNicoDouga - Sand Canyon x Minorin.mp3
AudioLeadIn: 2000
PreviewTime: 36354
Countdown: 1
SampleSet: Normal
StackLeniency: 0.7
Mode: 0
LetterboxInBreaks: 1

[Editor]
DistanceSpacing: 1
BeatDivisor: 4
GridSize: 8

[Metadata]
Title:Moruze Senshinkoku ToraDora!
Artist:NicoNicoDouga
Creator:Mafiamaster
Version:Crazy30
Source:
Tags:happy30

[Difficulty]
HPDrainRate:6
CircleSize:4
OverallDifficulty:7
SliderMultiplier:2
SliderTickRate:2

[Events]
//Background and Video events
Video,0,"BLAH_xvid.avi"
0,0,"New BG.jpg"
//Break Periods
//Storyboard Layer 0 (Background)
//Storyboard Layer 1 (Fail)
//Storyboard Layer 2 (Pass)
//Storyboard Layer 3 (Foreground)
//Storyboard Sound Samples
//Background Colour Transformations
3,100,0,0,0

[TimingPoints]
226,378.310214375788,4,1,0,80,1,0
4212,-50,4,1,0,80,0,0
4354,-100,4,1,0,80,0,0
4590,-50,4,1,0,80,0,0
4765,-200,4,1,0,80,0,0
5536,-100,4,1,0,80,0,0
24262,-100,4,1,0,45,0,0
30315,-100,4,1,0,80,0,0
57553,-100,4,1,0,49,0,0
57837,-100,4,1,0,62,0,0
58026,-100,4,1,0,71,0,0
58310,-100,4,1,0,71,0,0
58594,-100,4,1,0,87,0,0
58783,-100,4,1,0,100,0,0
60391,-100,4,1,0,80,0,0
72213,-100,4,1,0,23,0,0

[Colours]
Combo1 : 0,0,255
Combo2 : 255,0,128
Combo3 : 255,128,0

[HitObjects]
112,272,226,2,0,B|48:232|88:152,1,100
96,144,509,2,0,B|152:168,1,50
224,104,793,2,0,B|280:56,1,50
296,104,982,2,0,B|368:128|352:184,1,100
400,200,1266,1,0
408,248,1360,2,0,B|408:312|344:328,1,100
256,304,1739,5,0
88,192,2117,2,0,B|104:136,3,50
128,192,2495,2,0,B|112:248,3,50,0|0|0|0
176,192,2874,2,0,B|192:136,3,50
232,192,3252,5,0
256,288,3441,1,0
328,216,3630,1,0
328,216,3725,1,0
328,216,3819,2,0,B|392:216,9,50
416,192,4765,6,0,B|256:192,1,150,2|0
16,192,5522,1,2
416,192,5900,1,0
312,24,6278,5,0
208,32,6468,1,0
152,112,6657,1,0
160,208,6846,1,0
256,176,7035,1,0
256,176,7130,1,0
256,176,7224,1,0
256,176,7319,1,0
256,176,7413,2,0,B|312:208|312:272,1,100
256,336,7792,5,0
160,304,7981,2,0,B|112:320,3,50
152,256,8359,2,0,B|184:216,5,50
112,216,8927,1,0
128,56,9305,5,0
384,56,9494,1,0
256,56,9683,2,0,B|296:112|280:168,1,100,0|0
384,328,10062,5,0
128,328,10251,1,0
256,328,10440,2,0,B|216:272|232:216,1,100,0|0
344,192,10818,5,0
440,192,11007,1,0
440,192,11102,1,0
440,192,11196,1,0
344,192,11386,1,0
344,192,11480,1,0
344,192,11575,1,0
248,192,11764,1,0
200,192,11859,1,0
152,192,11953,1,0
56,192,12142,5,0
56,192,12331,1,0
176,328,12710,1,0
176,328,12804,1,0
176,328,12899,1,0
176,328,12993,1,0
176,328,13088,2,0,B|248:344|296:272,1,100
320,216,13466,1,0
192,56,13845,6,0,B|128:64,2,50,0|0|0
320,328,14412,2,0,B|384:320,2,50
256,128,14980,1,2
72,280,15358,5,0
64,80,15736,1,0
64,80,15831,1,0
160,80,16020,1,0
160,80,16115,1,0
280,80,16304,1,0
400,80,16493,1,0
248,328,16871,6,0,B|200:312,2,50
264,56,17439,2,0,B|312:72,2,50
256,192,18006,1,2
104,56,18384,6,0,B|48:56,1,50
104,104,18574,2,0,B|56:88,1,50
104,152,18763,2,0,B|48:152,1,50
104,200,18952,2,0,B|56:216,2,50
104,304,19330,1,0
104,304,19425,1,0
104,304,19519,1,0
200,304,19708,1,0
264,168,19898,5,0
336,96,20087,1,0
368,136,20181,1,0
376,184,20276,1,0
312,264,20465,1,0
312,264,20560,1,0
312,264,20654,1,0
176,96,20843,1,0
144,136,20938,1,0
136,184,21033,1,0
208,264,21222,5,0
208,264,21316,1,0
208,264,21411,2,0,B|208:320,1,50
112,272,21695,1,0
112,272,21789,2,0,B|112:328,1,50
16,288,22073,1,0
16,288,22167,2,0,B|16:344,4,50
64,200,22735,1,0
192,24,22924,6,0,B|248:48|240:112,1,100
248,200,23302,2,0,B|232:256,3,50
272,208,23681,2,0,B|328:192,4,50
112,336,24437,5,2
144,136,24816,1,2
216,336,25194,5,2
272,40,25383,1,2
320,336,25761,1,2
376,40,25951,1,2
424,336,26329,5,2
440,264,26707,1,2
456,192,27086,1,2
424,336,27464,5,2
392,136,27842,1,2
320,336,28220,5,2
264,40,28410,1,2
216,336,28788,1,2
160,40,28977,1,2
112,336,29355,5,2
96,264,29734,1,2
80,192,30112,1,2
376,344,30490,6,0,B|440:264|368:200,1,150
424,208,30869,2,0,B|448:152|408:104,1,100
376,16,31247,1,0
256,344,31625,1,0
136,16,32004,6,0,B|88:56|88:112,1,100
0,152,32382,2,0,B|-16:208|40:256,1,100
88,320,32760,1,0
256,40,33138,1,0
424,320,33517,6,0,B|456:264|448:224,1,100
360,184,33895,2,0,B|392:136|376:88,1,100
280,128,34273,1,0
280,128,34463,1,0
88,192,34841,5,0
64,288,35030,1,0
256,328,35408,2,0,B|256:216,2,100
256,40,36165,1,0
448,88,36543,6,0,B|472:184|416:248,1,150
384,256,36922,1,0
272,208,37111,1,0
200,304,37300,1,0
112,224,37489,1,0
40,320,37678,1,0
192,56,38057,5,0
192,56,38246,1,0
288,88,38435,2,0,B|344:64|376:112,1,100
360,208,38813,1,0
360,208,38908,1,0
360,208,39002,1,0
352,304,39191,1,0
264,248,39381,1,0
96,112,39570,5,0
291,124,39948,2,0,B|328:96|304:32,1,100,0|0
256,32,40232,1,0
208,32,40326,2,0,B|184:96|224:128,1,100,0|0
256,160,40610,1,0
256,160,40705,1,0
256,336,41083,5,0
256,312,41178,1,0
256,288,41272,1,0
256,264,41367,1,0
256,240,41461,2,0,B|256:184,3,50
256,160,41840,2,0,B|256:96,3,50
256,80,42218,1,0
56,48,42596,5,0
56,72,42691,1,0
56,96,42785,1,0
56,120,42880,1,0
56,144,42975,1,0
56,168,43069,1,0
56,192,43164,1,0
56,216,43258,1,0
56,240,43353,5,0
152,248,43542,1,0
200,248,43637,1,0
248,248,43731,1,0
344,248,43920,1,0
456,336,44109,5,0
480,112,44393,1,0
480,112,44488,1,0
392,64,44677,1,0
280,40,44866,2,0,B|256:88,3,50
224,48,45244,2,0,B|168:64,2,50,0|0|0
208,144,45623,6,0,B|248:232|120:272,1,150,2|0
120,224,46001,2,0,B|144:296|64:328,1,100,2|2
304,144,46379,6,0,B|264:232|392:272,1,150,2|0
392,224,46758,2,0,B|368:296|448:328,1,100,2|2
256,368,47136,5,0
216,168,47514,1,0
128,120,47703,1,0
48,184,47893,2,0,B|72:232,1,50
160,280,48176,2,0,B|152:224,1,50
464,144,48649,5,2
408,40,48838,1,2
400,64,48933,1,2
400,88,49028,1,2
304,56,49217,1,2
296,152,49406,1,2
216,88,49595,1,0
200,184,49784,1,2
176,280,49973,1,2
112,208,50162,5,2
56,120,50352,1,2
56,144,50446,1,2
48,168,50541,1,2
48,192,50635,1,2
40,216,50730,1,2
40,312,50919,1,2
128,360,51108,1,0
128,256,51297,1,2
464,144,51676,5,2
408,40,51865,1,2
400,64,51959,1,2
400,88,52054,1,2
304,56,52243,1,2
296,152,52432,1,2
216,88,52621,1,0
200,184,52811,1,2
176,280,53000,1,2
112,208,53189,1,2
488,56,53567,5,0
256,56,53756,1,0
24,56,53946,1,0
256,288,54324,1,0
336,104,54702,5,4
352,336,55080,1,0
336,288,55175,1,0
352,240,55270,1,0
448,256,55459,1,0
464,208,55553,1,0
448,160,55648,1,0
392,72,55837,1,2
120,344,56215,5,6
72,144,56594,1,0
72,240,56783,1,0
168,200,56972,2,0,B|184:128|168:96|136:56,1,150
138,59,57350,1,0
336,40,57729,5,4
376,184,57918,1,0
424,328,58107,1,0
176,40,58485,5,4
136,184,58674,1,0
88,328,58864,1,0
256,192,59242,12,4,59999
144,352,60755,5,0
192,264,60944,1,0
248,176,61133,1,0
296,264,61323,1,0
344,176,61512,1,0
400,88,61701,1,0
448,176,61890,1,0
448,176,62079,5,0
296,40,62458,1,0
392,336,62836,5,0
216,72,63025,1,0
312,360,63403,1,0
136,96,63592,1,0
48,152,63782,5,2
48,248,63971,1,2
120,312,64160,1,0
136,296,64255,1,0
152,280,64349,1,0
168,264,64444,1,0
184,248,64538,1,2
256,184,64727,5,2
384,192,64917,1,0
368,176,65011,1,0
352,160,65106,1,0
336,144,65200,1,0
320,128,65295,1,2
256,184,65484,1,2
216,96,65673,1,0
232,72,65768,1,0
256,64,65862,1,0
280,72,65957,1,0
296,96,66051,1,2
256,184,66241,5,2
256,280,66430,1,2
256,376,66619,1,2
168,336,66808,2,0,B|80:264|80:152,2,200,2|0|2
256,160,67943,1,2
344,336,68321,6,0,B|432:264|432:152,2,200,2|0|2
256,160,69456,1,2
88,56,69835,6,0,B|32:152,1,100,2|0
128,184,70213,2,0,B|168:312,1,100
256,280,70591,1,2
256,280,70780,1,2
256,104,71159,1,0
256,104,71348,1,2
328,168,71537,2,0,B|432:168,1,100,0|2
184,168,71915,2,0,B|80:168,1,100,0|2
256,280,72294,1,2
256,280,72483,1,2
