osu file format v5

[General]
AudioFilename: Miracle Mat-tan.mp3
AudioLeadIn: 0
PreviewTime: -1
Countdown: 1
SampleSet: Normal
StackLeniency: 0.4
Mode: 0
LetterboxInBreaks: 0
EditorDistanceSpacing: 0.699999988079071

[Metadata]
Title:Miracle Mat-tan
Artist:NicoNicoDouga
Creator:Mafiamaster
Version:KIRBY Mix
Source:
Tags:

[Difficulty]
HPDrainRate:7
CircleSize:5
OverallDifficulty:8
SliderMultiplier:1.8
SliderTickRate:1

[Events]
//Background and Video events
1,-200,"Miracle Mat-tan_xvid.avi"
0,0,"Raaaape.png"
//Break Periods
2,70511,84971
//Storyboard Layer 0 (Background)
//Storyboard Layer 1 (Failing)
//Storyboard Layer 2 (Passing)
//Storyboard Layer 3 (Foreground)
//Storyboard Sound Samples
//Background Colour Transformations
3,100,255,0,0

[TimingPoints]
5990,335.00837520938,4,1,0,70,1,0

[HitObjects]
448,64,5990,5,8
384,64,6157,1,0
320,80,6325,1,0
304,144,6492,1,8
224,160,6660,6,0,B|128:224|32:160,1,180,0|8
256,192,7162,5,0
288,224,7330,6,0,B|384:160|480:224,1,180,0|8
256,320,8000,5,8
208,304,8083,1,0
160,320,8167,1,0
80,272,8335,1,12
64,64,8670,5,8
128,64,8837,1,0
192,80,9005,1,0
208,144,9172,1,8
288,160,9340,6,0,B|384:224|480:160,1,180,0|8
256,192,9842,5,0
224,224,10010,6,0,B|128:160|32:224,1,180,0|8
256,320,10680,5,8
304,304,10763,1,0
352,320,10847,1,0
432,272,11015,1,12
256,192,11350,5,8
192,128,11517,1,0
320,128,11685,1,0
320,256,11852,1,8
192,256,12020,6,0,B|96:256|96:128,1,180,0|8
256,256,12522,5,8
320,256,12690,6,0,B|416:256|416:128,1,180,0|8
256,128,13192,5,8
224,224,13360,1,0
256,256,13443,1,0
288,224,13527,1,0
256,128,13695,1,12
256,192,14030,5,8
320,256,14197,1,0
192,256,14365,1,0
192,128,14532,1,8
320,128,14700,6,0,B|416:128|416:256,1,180,0|8
256,128,15202,5,8
192,128,15370,6,0,B|96:128|96:256,1,180,0|8
256,256,15872,5,8
288,160,16040,1,0
256,128,16124,1,0
224,160,16207,1,0
256,256,16375,1,12
256,256,16542,1,12
288,160,16710,5,8
256,128,16794,1,0
224,160,16877,1,0
128,192,17045,1,4
192,256,17212,1,8
224,288,17296,1,0
256,256,17380,1,0
352,256,17547,1,4
352,256,17715,1,4
352,256,17882,1,0
416,224,18050,5,2
352,192,18217,1,0
416,160,18385,1,2
352,128,18552,1,0
288,160,18720,5,2
352,128,18887,1,2
288,96,19055,1,2
352,64,19222,1,6
421,79,19390,6,0,B|404:132|320:129,1,90,0|0
288,160,19725,2,0,B|288:224|160:224,1,90,8|0
160,256,20060,2,0,B|160:320|32:320,1,90
96,224,20395,2,0,B|96:160|224:160,1,90,8|0
224,128,20730,2,0,B|224:64|352:64,1,90
352,64,21065,5,8
416,96,21232,1,0
352,128,21400,1,8
416,160,21567,1,0
352,192,21735,1,12
192,192,22070,5,0
160,224,22154,1,0
128,192,22237,1,8
256,96,22405,5,12
320,192,22572,5,0
352,224,22656,1,0
384,192,22740,1,8
256,288,22907,5,4
256,288,23075,1,12
256,288,23242,1,0
256,192,23410,6,8,B|256:128|192:128,1,90
256,192,23745,2,8,B|256:256|320:256,1,90
256,192,24080,5,0
320,160,24247,1,0
256,128,24415,1,0
192,160,24582,1,4
192,224,24750,6,2,B|192:288|128:288,1,90
320,224,25252,2,2,B|320:288|384:288,1,90
256,192,25755,5,0
256,192,25922,1,0
352,192,26090,5,2
160,192,26425,1,2
352,192,26760,1,2
160,192,27095,1,8
160,192,27263,1,4
160,256,27430,5,2
192,320,27598,1,0
256,352,27765,1,2
320,320,27933,1,0
352,256,28100,6,10,B|352:192|256:192|256:192|256:128,1,180
160,256,28770,6,10,B|160:192|256:192|256:192|256:128,1,180
192,96,29440,5,10
224,32,29608,1,0
256,64,29691,1,0
288,32,29775,1,6
352,128,30110,5,2
320,64,30278,1,0
256,32,30445,1,2
192,64,30613,1,0
160,128,30780,6,10,B|160:192|256:192|256:192|256:256,1,180
352,128,31450,6,10,B|352:192|256:192|256:192|256:256,1,180
320,288,32120,5,10
288,352,32288,1,0
256,320,32371,1,0
224,352,32455,1,6
256,96,32790,5,2
192,128,32958,1,2
256,160,33125,1,2
320,192,33293,1,2
256,224,33460,6,10,B|160:256|160:256|96:128,1,180
256,224,34130,6,10,B|352:256|352:256|416:128,1,180
256,96,34800,5,10
224,160,34968,1,2
256,192,35051,1,0
288,160,35135,1,14
256,288,35470,5,2
320,256,35638,1,2
256,224,35805,1,2
192,192,35973,1,2
256,160,36140,6,10,B|352:128|352:128|416:256,1,180
256,160,36810,6,10,B|160:128|160:128|96:256,1,180
256,288,37480,5,10
288,224,37648,1,2
256,192,37732,1,0
224,224,37815,1,14
224,224,37983,1,10
224,224,38150,5,8
256,256,38234,1,0
288,224,38318,1,0
384,192,38485,1,4
320,128,38653,1,8
288,96,38737,1,0
256,128,38820,1,0
160,128,38988,1,4
160,128,39155,1,4
160,128,39323,1,0
96,160,39490,5,2
160,192,39658,1,2
96,224,39825,1,2
160,256,39993,1,2
224,224,40160,5,2
160,256,40328,1,2
224,288,40495,1,2
160,320,40663,1,6
91,305,40830,6,0,B|108:252|192:255,1,90,0|0
224,224,41165,2,0,B|224:160|352:160,1,90,8|0
352,128,41500,2,0,B|352:64|480:64,1,90
416,160,41835,2,0,B|416:224|288:224,1,90,8|0
288,256,42170,2,0,B|288:320|160:320,1,90
160,320,42505,5,8
96,288,42673,1,0
160,256,42840,1,8
96,224,43008,1,0
160,192,43175,1,12
320,192,43510,5,0
352,160,43594,1,0
384,192,43678,1,8
256,288,43845,5,12
192,192,44013,5,0
160,160,44097,1,0
128,192,44180,1,8
256,96,44348,5,4
256,96,44515,1,12
256,96,44683,1,0
256,192,44850,6,8,B|256:256|320:256,1,90
256,192,45185,2,8,B|256:128|192:128,1,90
256,192,45520,5,0
192,224,45688,1,0
256,256,45855,1,0
320,224,46023,1,4
320,160,46191,6,2,B|320:96|384:96,1,90
192,160,46693,2,2,B|192:96|128:96,1,90
256,192,47196,5,0
256,192,47363,1,0
160,192,47531,5,2
352,192,47866,1,2
160,192,48201,1,2
352,192,48536,1,8
352,192,48703,1,4
160,192,48871,5,2
96,224,49038,1,0
32,192,49206,1,2
96,160,49373,1,0
160,128,49541,2,6,B|256:128,1,90
416,128,50043,1,8
256,192,50378,5,2
256,192,50713,1,6
320,288,51216,5,8
384,256,51383,1,4
352,192,51551,5,2
416,224,51718,1,0
480,192,51886,1,2
416,160,52053,1,0
352,128,52221,2,6,B|256:128,1,90
96,128,52723,1,8
256,192,53058,5,2
256,192,53393,1,6
192,288,53896,5,8
128,256,54063,1,4
160,192,54231,6,0,B|352:192,2,180,8|0|8
160,192,55236,1,4
344,136,55571,6,8,B|152:136,2,180
344,136,56576,1,4
256,320,56911,5,0
192,288,57078,1,0
160,224,57246,1,8
256,64,57581,5,0
320,96,57748,1,0
352,160,57916,1,8
144,80,58251,5,2
368,304,58586,1,8
144,80,58921,1,2
368,304,59256,1,8
368,304,59423,1,4
288,256,59591,5,4
256,288,59675,1,0
224,256,59758,1,8
256,192,59926,1,8
224,128,60093,1,0
256,96,60177,1,0
288,128,60261,1,8
304,192,60428,6,8,B|208:192,2,90,8|8|12
384,192,60931,6,2,B|384:128|288:128,1,90
256,128,61266,2,2,B|256:224,1,90
256,288,61601,5,8
224,320,61685,1,0
192,336,61768,1,0
160,320,61852,1,0
128,288,61936,1,8
192,224,62103,1,4
118,160,62271,6,0,B|118:224|22:224,1,90,8|0
32,128,62606,2,4,B|32:64|128:64,1,90,0|0
160,64,62941,2,0,B|216:61|216:125,1,90,8|0
175,217,63276,2,0,B|120:221|120:157,1,90
120,162,63611,6,0,B|192:96,1,90,8|0
120,162,63946,2,0,B|48:96,1,90,8|0
53,101,64281,1,12
224,128,64951,5,4
256,96,65035,1,0
288,128,65118,1,8
256,192,65286,1,8
288,256,65453,1,0
256,288,65537,1,0
224,256,65621,1,8
208,192,65788,6,8,B|304:192,2,90,8|8|12
128,192,66291,6,2,B|128:256|224:256,1,90
256,256,66626,2,2,B|256:160,1,90
328,131,66961,2,2,B|384:128|384:192,1,90
320,256,67296,5,8
256,224,67464,1,0
192,256,67631,6,2,B|192:320|96:320,1,90
328,131,68134,6,2,B|328:67|424:67,1,90,2|2
256,192,68636,5,8
256,192,68804,1,8
160,192,68971,5,8
352,192,69306,1,0
160,192,69641,1,8
352,192,69976,1,8
352,192,70144,1,0
352,192,70311,1,12
256,192,85721,5,0
256,192,85889,1,0
160,192,86057,5,0
128,256,86224,1,0
64,288,86392,1,8
256,288,86559,5,0
352,192,86727,5,0
384,256,86894,1,0
448,288,87062,1,8
256,192,87229,5,0
160,192,87397,5,0
128,128,87564,1,0
64,96,87732,1,8
256,96,87899,5,0
352,192,88067,5,0
384,128,88234,1,0
448,96,88402,1,8
256,192,88569,5,12
256,192,88737,5,0
256,192,88904,1,12
256,96,89072,6,2,B|192:96|192:32,1,90,2|10
256,288,89574,2,2,B|320:288|320:352,1,90,2|10
256,192,90077,5,8
256,192,90244,1,8
352,192,90412,5,4
160,192,90747,1,4
352,192,91082,1,4
160,192,91417,1,8
160,192,91584,1,4
224,128,91752,5,4
256,96,91835,1,0
288,128,91919,1,8
256,192,92087,1,8
288,256,92254,1,0
256,288,92338,1,0
224,256,92422,1,8
208,192,92589,6,8,B|304:192,2,90,8|8|12
128,192,93092,6,2,B|128:256|224:256,1,90
256,256,93427,2,2,B|256:160,1,90
256,96,93762,5,8
288,64,93845,1,0
320,48,93929,1,0
352,64,94013,1,0
384,96,94097,1,8
320,160,94264,1,4
394,224,94432,6,0,B|394:160|490:160,1,90,8|0
480,256,94767,2,4,B|480:320|384:320,1,90,0|0
351,319,95102,2,0,B|296:323|296:259,1,90,8|0
336,166,95437,2,0,B|392:163|392:227,1,90
392,222,95772,6,0,B|320:288,1,90,8|0
392,222,96107,2,0,B|464:288,1,90,8|0
459,283,96442,1,12
288,256,97112,5,4
256,288,97196,1,0
224,256,97279,1,8
256,192,97447,1,8
224,128,97614,1,0
256,96,97698,1,0
288,128,97782,1,8
304,192,97949,6,8,B|208:192,2,90,8|8|12
384,192,98452,6,2,B|384:128|288:128,1,90
256,128,98787,2,2,B|256:224,1,90
183,252,99122,2,2,B|128:256|128:192,1,90
192,128,99457,5,8
256,160,99624,1,0
320,128,99792,6,2,B|320:64|416:64,1,90
192,256,100294,6,2,B|192:320|96:320,1,90
256,192,100797,5,8
256,192,100964,1,8
352,192,101132,5,8
160,192,101467,1,0
352,192,101802,1,8
160,192,102137,1,8
160,192,102304,1,0
448,64,102472,5,8
384,64,102639,1,0
320,80,102807,1,0
304,144,102974,1,8
224,160,103142,6,0,B|128:224|32:160,1,180,0|8
256,192,103644,5,0
288,224,103812,6,0,B|384:160|480:224,1,180,0|8
256,320,104482,5,8
208,304,104566,1,0
160,320,104649,1,0
80,272,104817,1,12
256,192,105152,5,8
192,128,105319,1,0
320,128,105487,1,0
320,256,105654,1,8
192,256,105822,6,0,B|96:256|96:128,1,180,0|8
256,256,106325,5,8
320,256,106492,6,0,B|416:256|416:128,1,180,0|8
256,128,106995,5,8
224,224,107162,1,0
256,256,107246,1,0
288,224,107330,1,0
256,128,107497,1,12
160,256,107832,5,2
192,320,108000,1,0
256,352,108167,1,2
320,320,108335,1,0
352,256,108502,6,10,B|352:192|256:192|256:192|256:128,1,180
160,256,109172,6,10,B|160:192|256:192|256:192|256:128,1,180
192,96,109842,5,10
224,32,110010,1,0
256,64,110093,1,0
288,32,110177,1,6
256,96,110512,5,2
192,128,110680,1,2
256,160,110847,1,2
320,192,111015,1,2
256,224,111182,6,10,B|160:256|160:256|96:128,1,180
256,224,111852,6,10,B|352:256|352:256|416:128,1,180
256,96,112522,5,10
224,160,112690,1,2
256,192,112773,1,0
288,160,112857,1,14
256,224,113025,1,8
256,288,113192,5,6
