osu file format v5

[General]
AudioFilename: Miracle Mat-tan.mp3
AudioLeadIn: 0
PreviewTime: -1
Countdown: 1
SampleSet: Soft
StackLeniency: 0.7
Mode: 0
LetterboxInBreaks: 0
EditorBookmarks: 5990,6660,7330,8000,8670,9340,10010,10680,11350,12020,12690,13360,14030,14700,15370,16040,16710,27430,28100,28770,29440,30110,30780,31450,32120,32790,33460,34130,34800,35470,36140,36810,37480,70311,71651,72991,74331,75671,77011,78351,79691,81031,82371,83711,85051,86392,87732,89072,102472,103142,103812,104482,105152,105822,106492,107162,107832,108502,109172,109842,110512,111182,111852,112522,113192
EditorDistanceSpacing: 1

[Metadata]
Title:Miracle Mat-tan
Artist:NicoNicoDouga
Creator:Mafiamaster
Version:Gladi
Source:
Tags:

[Difficulty]
HPDrainRate:5
CircleSize:4
OverallDifficulty:6
SliderMultiplier:1.5
SliderTickRate:0.5

[Events]
//Background and Video events
1,-200,"Miracle Mat-tan_xvid.avi"
0,0,"Raaaape.png"
//Break Periods
2,70344,84821
//Storyboard Layer 0 (Background)
//Storyboard Layer 1 (Failing)
//Storyboard Layer 2 (Passing)
//Storyboard Layer 3 (Foreground)
//Storyboard Sound Samples
//Background Colour Transformations
3,100,255,0,0

[TimingPoints]
5990,335.00837520938,4,2,0,100,1,0
49792,-200,4,2,0,0,0,0
50378,-100,4,2,0,100,0,0
52472,-200,4,2,0,0,0,0
53058,-100,4,2,0,100,0,0
54231,1340.03350083752,4,2,0,100,1,0
55236,335.00837520938,4,2,0,100,1,0
55403,-200,4,2,0,100,0,0
56576,-100,4,2,0,100,0,0
113192,-100,4,2,0,0,0,0

[HitObjects]
176,136,5990,5,2
176,208,6157,2,8,B|256:224,1,75
319,223,6492,1,8
384,184,6660,2,0,B|432:40,2,150,2|8|2
320,320,7665,1,8
176,320,8000,1,2
320,248,8167,1,8
176,248,8335,1,8
176,96,8670,5,2
240,64,8837,2,8,B|328:72,1,75
314,70,9172,1,8
344,136,9340,2,0,B|392:208|480:192,2,150,2|8|2
200,192,10345,1,8
272,320,10680,1,2
264,152,10847,1,8
336,280,11015,1,8
416,152,11350,5,2
376,88,11517,2,8,B|432:24,2,75,8|8|8
312,48,12020,2,0,B|160:88,1,150,2|8
312,120,12690,2,0,B|160:160,1,150,2|8
208,304,13360,1,2
231,142,13527,1,8
280,288,13695,1,8
144,224,14030,5,2
96,168,14197,1,8
144,112,14365,2,8,B|184:40,1,75
248,64,14700,2,0,B|296:144|232:224,1,150,2|8
368,128,15370,1,2
448,256,15705,1,8
312,328,16040,1,2
408,192,16207,1,8
272,264,16375,1,8
368,128,16542,1,8
232,200,16710,5,6
232,200,16794,1,0
232,200,16877,1,0
152,72,17212,1,0
88,104,17380,1,2
168,232,17715,1,0
168,232,17799,1,0
168,232,17882,1,0
232,200,18050,2,0,B|280:120|216:48,2,150,2|2|2
304,224,18887,1,0
304,224,18971,1,0
304,224,19055,1,2
360,176,19222,1,6
432,200,19390,6,0,B|464:288|376:344,1,150,6|0
320,336,19892,2,0,B|328:296,2,37.5,0|0|2
248,320,20227,1,0
200,264,20395,2,0,B|232:240,2,37.5
176,192,20730,1,2
184,120,20897,2,0,B|240:128,2,37.5,0|0|2
224,56,21232,1,0
288,16,21400,2,0,B|344:80|288:168,1,150,6|2
295,155,21902,1,2
328,224,22070,5,6
328,224,22154,1,0
328,224,22237,1,0
456,152,22572,1,0
472,224,22740,2,0,B|488:328|368:336,1,150,2|0
248,328,23410,1,2
136,224,23745,2,0,B|160:144,1,75,2|0
232,144,24080,1,2
376,96,24415,5,6
256,216,24582,1,6
400,168,24750,1,6
232,144,24917,1,0
80,120,25252,1,0
16,152,25420,2,0,B|-16:224|24:312,1,150,2|0
18,297,25922,1,0
80,336,26090,5,6
432,336,26425,5,6
432,48,26760,5,6
80,48,27095,5,6
56,120,27263,1,6
120,152,27430,6,0,B|192:208,1,75,2|8
179,198,27765,1,8
179,198,27933,1,8
248,168,28100,2,0,B|304:96|224:32,1,150,2|8
80,48,28770,1,2
40,192,29105,1,8
160,280,29440,1,2
88,136,29608,1,8
208,224,29775,1,8
336,176,30110,5,2
408,192,30278,1,8
480,176,30445,1,8
408,192,30613,1,8
336,176,30780,2,0,B|256:152|184:176,2,150,2|8|2
248,296,31785,1,8
96,272,32120,1,2
264,224,32288,1,8
112,200,32455,1,8
216,96,32790,6,0,B|296:72,1,75,2|8
363,75,33125,2,0,B|451:99,1,75,8|8
432,168,33460,1,2
320,272,33795,1,8
216,168,34130,1,2
112,272,34465,1,8
216,168,34800,1,2
160,328,34968,1,8
264,224,35135,1,8
328,88,35470,5,2
256,72,35638,1,8
184,88,35805,1,8
256,72,35973,1,8
328,88,36140,2,0,B|304:168|368:240,2,150,2|8|2
216,168,37145,1,8
72,224,37480,1,2
240,240,37648,1,8
96,296,37815,1,8
96,296,37899,1,0
96,296,37983,1,0
96,296,38067,1,0
96,296,38150,6,0,B|136:320,2,37.5,6|0|0
264,312,38653,1,0
264,312,38820,1,2
392,240,39155,1,0
392,240,39239,1,0
392,240,39323,1,0
336,192,39490,2,0,B|280:128|312:40,2,150,2|2|2
264,216,40328,1,0
264,216,40412,1,0
264,216,40495,1,2
216,160,40663,1,4
144,168,40830,6,0,B|96:240|152:320,1,150,6|0
208,344,41333,2,0,B|192:384,2,37.5,0|0|2
280,344,41668,1,0
344,312,41835,2,0,B|376:336,2,37.5
376,248,42170,1,2
368,176,42338,2,0,B|416:168,2,37.5,0|0|2
336,112,42673,1,0
272,72,42840,2,0,B|192:40|120:96,1,150,2|2
129,88,43343,1,2
96,152,43510,5,6
96,152,43594,1,0
96,152,43678,1,0
232,216,44013,1,0
304,200,44180,2,0,B|392:184|440:256,1,150,2|0
312,336,44850,1,2
168,288,45185,2,0,B|104:240,1,75,2|0
108,243,45520,1,2
208,128,45855,5,6
168,288,46023,1,6
264,176,46191,1,6
108,243,46358,1,0
64,96,46693,1,0
120,48,46861,2,0,B|192:0|296:64,1,150,2|0
328,72,47363,1,0
400,64,47531,5,6
400,320,47866,5,6
112,320,48201,5,6
112,64,48536,5,6
136,136,48703,1,6
208,152,48871,6,0,B|248:232,1,75,6|8
304,176,49206,2,8,B|368:248,1,75,8|2
392,168,49541,2,8,B|480:200,1,75,8|8
464,120,49876,2,0,B|352:80,1,112.5,0|8
208,64,50713,1,8
96,264,51216,1,8
152,312,51383,1,8
224,336,51551,5,6
296,312,51718,1,8
352,264,51886,1,8
296,312,52053,1,2
224,336,52221,1,8
152,312,52388,1,0
96,264,52556,2,0,B|152:144,1,112.5,0|8
288,120,53393,1,8
440,288,53896,2,8,B|352:272,1,75
312,328,54231,6,0,B|216:328,1,75,4|8
200,56,55571,6,0,B|296:56,2,75,4|8|8
144,192,56911,6,8,B|224:192,2,75
368,192,57581,2,8,B|288:192,2,75
256,88,58251,2,0,B|256:256,1,150,2|8
256,238,58921,1,2
128,312,59256,1,8
56,280,59423,1,8
32,208,59591,5,6
32,208,59674,1,0
32,208,59758,1,0
136,96,60093,1,0
208,112,60261,2,0,B|280:152|376:104,1,150,2|0
424,104,60763,1,0
424,104,60847,1,0
424,104,60931,1,2
464,248,61266,1,2
320,288,61601,1,2
248,272,61768,1,0
248,272,61852,1,0
248,272,61936,1,2
176,288,62103,1,6
104,272,62271,6,0,B|48:208|96:128,1,150,6|0
152,88,62773,2,0,B|136:40,2,37.5,0|0|2
224,80,63108,1,0
296,96,63276,2,0,B|312:48,2,37.5
344,152,63611,1,2
352,224,63778,2,0,B|400:232,2,37.5,0|0|2
320,288,64113,1,0
256,320,64281,2,0,B|192:368|88:328,1,150,2|2
64,192,64951,5,6
64,192,65034,1,0
64,192,65118,1,0
200,120,65453,1,0
264,160,65621,2,0,B|312:240|256:320,2,150,2|0|2
400,104,66626,2,0,B|480:112,2,75,2|0|2
376,248,67296,5,6
328,88,67463,1,6
304,232,67631,1,6
400,104,67798,1,0
256,144,68133,1,0
184,152,68301,2,0,B|104:176|32:136,1,150,2|0
38,139,68803,1,0
64,72,68971,5,6
448,72,69306,5,6
448,312,69641,5,6
64,312,69976,5,6
64,312,70143,1,6
256,192,85721,12,0,88401
168,200,89071,5,6
240,224,89239,2,0,B|312:200|400:224,1,150
388,220,89741,1,0
304,96,90076,2,0,B|224:64,1,75,0|0
160,72,90411,2,0,B|144:168|16:136,2,150
256,192,91416,1,6
256,192,91584,1,6
328,208,91751,5,6
328,208,91835,1,0
328,208,91919,1,0
440,104,92254,1,0
480,168,92421,2,0,B|528:240|472:320,1,150,2|0
432,368,92924,1,0
432,368,93008,1,0
432,368,93091,1,2
280,352,93426,1,0
144,280,93761,1,2
120,208,93929,1,0
120,208,94013,1,0
120,208,94096,1,2
136,136,94264,1,4
192,88,94431,6,0,B|280:88|320:184,1,150,6|0
312,240,94934,2,0,B|264:232,2,37.5,0|0|2
288,312,95269,1,0
216,336,95437,2,0,B|232:376,2,37.5
144,320,95772,1,2
96,264,95939,2,0,B|128:240,2,37.5,0|0|2
80,192,96274,1,0
96,120,96442,2,0,B|264:96,1,150,2|2
244,98,96944,1,2
320,112,97112,5,6
320,112,97195,1,0
320,112,97279,1,0
416,232,97614,1,0
352,272,97782,2,0,B|280:304|184:264,1,150,2|0
112,152,98452,1,0
80,296,98787,1,0
80,296,98954,1,0
80,296,99122,1,0
184,168,99457,5,6
152,312,99624,1,6
112,152,99792,1,6
80,296,99959,1,0
224,248,100294,1,0
296,264,100462,2,0,B|376:232|352:128,1,150
384,72,100964,1,0
456,48,101132,5,6
56,48,101467,5,6
456,336,101802,5,6
56,336,102137,5,6
96,272,102304,1,6
168,256,102472,6,0,B|176:160,1,75,6|8
174,181,102807,1,8
240,144,102974,1,8
304,184,103142,2,0,B|480:208,1,150,2|8
312,256,103812,2,0,B|488:280,1,150,2|8
448,128,104482,1,2
390,267,104649,1,8
376,120,104817,1,8
232,152,105152,5,6
160,144,105319,2,8,B|56:160,2,75
184,216,105822,2,0,B|216:296|152:360,2,150,2|8|2
328,256,106827,1,8
408,128,107162,1,2
272,208,107329,1,8
352,80,107497,1,8
208,136,107832,6,0,B|136:80,1,75,2|8
149,90,108167,1,8
149,90,108335,1,8
80,120,108502,2,0,B|24:192|104:256,1,150,2|8
248,240,109172,1,2
288,96,109507,1,8
168,8,109842,1,2
240,152,110010,1,8
120,64,110177,1,8
48,168,110512,5,2
0,224,110679,1,8
48,280,110847,2,8,B|88:352,1,75
152,328,111182,2,0,B|200:248|136:168,1,150,2|8
272,264,111852,1,2
352,136,112187,1,8
216,64,112522,1,2
312,200,112689,1,8
176,128,112857,1,8
272,264,113024,1,8
256,192,113192,12,0,113862
