osu file format v5

[General]
AudioFilename: Miracle Mat-tan.mp3
AudioLeadIn: 0
PreviewTime: -1
Countdown: 1
SampleSet: None
StackLeniency: 0.7
Mode: 0
LetterboxInBreaks: 0
EditorBookmarks: 5990,6660,7330,8000,8670,9340,10010,10680,11350,12020,12690,13360,14030,14700,15370,16040,16710,27430,28100,28770,29440,30110,30780,31450,32120,32790,33460,34130,34800,35470,36140,36810,37480,70311,71651,72991,74331,75671,77011,78351,79691,81031,82371,83711,85051,86392,87732,89072,102472,103142,103812,104482,105152,105822,106492,107162,107832,108502,109172,109842,110512,111182,111852,112522,113192
EditorDistanceSpacing: 0.699999988079071

[Metadata]
Title:Miracle Mat-tan
Artist:NicoNicoDouga
Creator:Mafiamaster
Version:Easy
Source:
Tags:

[Difficulty]
HPDrainRate:2
CircleSize:3
OverallDifficulty:4
SliderMultiplier:1
SliderTickRate:1

[Events]
//Background and Video events
1,-200,"Miracle Mat-tan_xvid.avi"
0,0,"Raaaape.png"
//Break Periods
2,49071,58391
2,70511,90552
//Storyboard Layer 0 (Background)
//Storyboard Layer 1 (Failing)
//Storyboard Layer 2 (Passing)
//Storyboard Layer 3 (Foreground)
//Storyboard Sound Samples
//Background Colour Transformations
3,100,255,0,0

[TimingPoints]
5990,335.00837520938,4,0,0,100,1,0
113192,-100,4,0,0,20,0,0
113276,-100,4,0,0,0,0,0

[HitObjects]
104,112,5990,2,8,B|56:56|128:24|248:48|168:128,1,200
56,352,7330,2,8,B|224:224,1,200,8|8
408,272,8670,6,8,B|456:328|384:360|264:336|344:256,1,200
456,32,10010,2,8,B|288:160,1,200,8|8
96,192,11350,6,0,B|96:144|96:144|96:112|136:112|136:112|176:112|176:144|176:144|176:192,1,200,8|8
177,182,12690,2,8,B|177:230|177:230|177:262|217:262|217:262|257:262|257:230|257:230|257:182,1,200,8|8
256,192,14030,2,8,B|256:144|256:144|256:112|296:112|296:112|336:112|336:144|336:144|336:192,1,200,8|8
336,181,15370,2,0,B|336:229|336:229|336:261|376:261|376:261|416:261|416:229|416:229|416:181,1,200,8|8
416,352,16710,6,0,B|376:392|320:352,1,100,8|0
376,280,17380,1,8
96,352,18050,6,0,B|136:392|192:352,1,100,8|0
136,280,18720,1,8
296,280,19390,5,8
216,144,20060,1,8
136,280,20730,1,8
216,336,21065,1,8
296,280,21400,1,4
96,32,22070,6,0,B|136:-8|192:32,1,100,8|0
136,104,22740,1,8
416,32,23410,6,0,B|376:-8|320:32,1,100,8|0
376,104,24080,1,8
216,104,24750,5,8
296,240,25420,1,8
376,104,26090,5,8
216,104,26760,1,8
296,152,27095,1,8
296,240,27430,6,0,B|344:240|344:240|376:240|376:280|376:280|376:320|344:320|344:320|296:320,1,200,4|0
307,320,28770,2,0,B|112:256,1,200,8|0
117,258,30110,6,0,B|69:258|69:258|37:258|37:218|37:218|37:178|69:178|69:178|117:178,1,200,8|0
106,178,31450,2,0,B|297:116,1,200,8|0
298,115,32790,6,0,B|298:78|298:78|298:45|338:45|338:45|378:45|378:78|378:78|378:126,1,200,4|0
378,125,34130,2,0,B|188:188,1,200,8|0
187,189,35470,2,8,B|150:189|150:189|118:189|118:229|118:229|118:269|150:269|150:269|198:269,1,200,8|0
197,269,36810,2,0,B|317:269|317:269|349:269|349:245|349:245|349:221|317:221|317:221|269:221|269:221|221:221|221:197|221:197|221:173|277:173|277:173|317:173,1,400,8|4
136,104,38820,5,8
416,32,39490,6,0,B|376:-8|320:32,1,100,8|0
376,104,40160,1,8
216,104,40830,5,8
296,240,41500,1,8
376,104,42170,1,8
216,104,42840,1,8
416,352,43510,6,0,B|376:392|320:352,1,100,8|0
376,280,44180,1,8
96,352,44850,6,0,B|136:392|192:352,1,100,8|0
136,280,45520,1,8
296,280,46191,5,8
216,144,46861,1,8
136,280,47531,5,8
296,280,48201,1,8
216,232,48536,1,8
216,144,48871,1,4
96,352,59591,6,0,B|136:392|192:352,1,100,8|0
136,280,60261,1,8
416,352,60931,6,0,B|376:392|320:352,1,100,8|0
376,280,61601,1,8
216,280,62271,5,8
296,144,62941,1,8
376,280,63611,1,8
296,336,63946,1,8
216,280,64281,1,4
416,32,64951,6,0,B|376:-8|320:32,1,100,8|0
376,104,65621,1,8
96,32,66291,6,8,B|136:-8|192:32,1,100,8|0
136,104,66961,1,8
296,104,67631,5,8
216,240,68301,1,8
136,104,68971,5,8
296,104,69641,1,8
216,152,69976,1,8
136,200,70311,1,4
416,32,91752,6,0,B|376:-8|320:32,1,100,8|0
376,104,92422,1,8
96,32,93092,6,0,B|136:-8|192:32,1,100,8|0
136,104,93762,1,8
296,104,94432,5,8
216,240,95102,1,8
136,104,95772,1,8
216,48,96107,1,8
296,104,96442,1,4
96,352,97112,6,0,B|136:392|192:352,1,100,8|0
136,280,97782,1,8
416,352,98452,6,0,B|376:392|320:352,1,100,8|0
376,280,99122,1,8
216,280,99792,5,8
296,144,100462,1,8
376,280,101132,5,8
296,320,101467,1,0
216,280,101802,1,8
296,232,102137,1,8
376,280,102472,6,8,B|432:328|464:256|440:136|360:216,1,200,4|8
456,32,103812,2,8,B|288:160,1,200,8|8
136,104,105152,6,8,B|80:56|48:128|72:248|152:168,1,200,8|8
56,352,106492,2,8,B|224:224,1,200,8|8
416,192,107832,6,0,B|416:240|416:240|416:272|376:272|376:272|336:272|336:240|336:240|336:192,1,200,8|8
335,202,109172,2,0,B|335:154|335:154|335:122|295:122|295:122|255:122|255:154|255:154|255:202,1,200,8|8
256,192,110512,2,0,B|256:240|256:240|256:272|216:272|216:272|176:272|176:240|176:240|176:192,1,200,8|8
176,203,111852,2,8,B|176:155|176:155|176:123|136:123|136:123|96:123|96:155|96:155|96:203,1,200,8|8
256,192,113192,5,4
