osu file format v5

[General]
AudioFilename: niconico.MP3
AudioLeadIn: 0
PreviewTime: 380526
Countdown: 1
SampleSet: Normal

[Metadata]
Title:Kumikyoku NicoNicoDouga
Artist:NicoNicoDouga
Creator:Neo@lex
Version:Hard

[Difficulty]
HPDrainRate:6
CircleSize:6
OverallDifficulty:7
SliderMultiplier:1
SliderTickRate:1

[Events]
//Background and Video events
1,-187,"nnd.avi"
//Break Periods
2,72937,82504
2,92104,94337
2,104937,117837
2,134937,135837
2,137603,139170
2,149603,160503
2,181103,181837
2,193602,202670
2,214937,223837
2,269602,292336
2,336266,348666
2,390098,390999
2,400764,425999
2,448266,463166
2,485599,505832
2,516599,523166
2,526278,526345
2,537432,547000
2,579599,584499
//Storyboard Layer 0 (Background)
//Storyboard Layer 1 (Failing)
//Storyboard Layer 2 (Passing)
//Storyboard Layer 3 (Foreground)
//Storyboard Sound Samples
//Background Colour Transformations
3,100,122,121,191

[TimingPoints]
23070,666.666666666667,4,1,0,100

[HitObjects]
400,80,23070,2,0,C|368:112,1,25
382,97,23403,2,0,C|320:160,1,75
288,176,24236,1,0
288,176,24403,1,0
288,208,24570,1,0
288,208,24736,1,0
288,240,24903,1,0
288,240,25070,1,0
288,240,25236,1,0
288,240,25403,2,0,C|352:240,1,50
338,240,25903,1,0
416,240,26403,2,0,C|416:144,1,75
416,112,27236,5,0
416,112,27403,2,0,C|352:112,1,50
320,112,28070,2,0,C|320:176,1,50
320,162,28570,2,0,C|320:224,1,50
320,212,29070,1,0
400,208,29570,5,0
400,208,29736,1,0
400,208,29903,1,0
400,208,30070,2,0,C|400:144,1,50
400,158,30570,1,0
400,158,30736,1,0
400,112,31070,1,0
400,112,31236,1,0
400,64,31570,1,0
400,64,31736,1,0
320,64,32236,5,0
288,64,32403,1,0
256,64,32570,1,0
256,96,32736,1,2
256,128,32903,1,2
256,160,33070,1,2
256,192,33236,1,4
178,241,33736,6,0,C|146:209,1,25
160,224,34070,2,0,C|98:161,1,75
66,145,34903,1,0
66,145,35070,1,0
66,113,35236,1,0
66,113,35403,1,0
66,81,35570,1,0
66,81,35736,1,0
66,81,35903,1,0
66,81,36070,2,0,C|130:81,1,50
116,81,36570,1,0
194,81,37070,2,0,C|194:177,1,75
194,209,37903,5,0
194,209,38070,2,0,C|130:209,1,50
96,208,38736,2,0,C|96:144,1,50
96,158,39236,2,0,C|96:96,1,50
96,108,39736,2,0,C|190:111,1,75
170,110,40403,5,0
206,111,40569,1,0
206,111,40736,1,0
256,112,41069,2,0,C|256:176,1,50
256,162,41569,2,2,C|256:224,1,50
256,212,42069,2,2,C|256:272,1,50
256,262,42569,2,6,C|256:352,1,75
368,80,44069,5,4
368,80,44236,2,0,C|304:80,1,50
320,80,44736,2,0,C|256:80,1,50
270,80,45236,2,0,C|224:112,1,50
208,128,45736,1,0
176,128,45903,2,0,C|48:64,1,125
64,72,46903,6,0,C|128:80,1,50
113,78,47403,2,0,C|176:80,1,50
192,80,47903,1,0
240,80,48236,1,0
240,80,48403,1,0
240,80,48569,1,0
240,160,49069,5,0
272,160,49236,1,0
256,192,49403,2,0,C|256:256,1,50
256,242,49903,1,0
240,320,50403,5,0
272,320,50569,1,0
256,288,50736,2,0,C|256:224,1,50
256,238,51236,1,0
240,160,51736,5,0
272,160,51903,1,0
256,128,52069,2,0,C|256:64,1,50
256,80,52569,2,0,C|256:30,2,50
256,192,53569,12,0,54236
144,304,54736,5,4
144,304,54903,2,0,C|208:304,1,50
192,304,55403,2,0,C|256:304,1,50
242,304,55903,2,0,C|288:272,1,50
304,256,56403,1,0
336,256,56569,2,0,C|464:320,1,125
447,311,57569,5,0
416,320,57736,1,0
384,304,57903,1,0
352,304,58069,2,0,C|288:304,1,50
302,304,58569,2,0,C|304:240,2,50
272,224,59736,5,0
240,224,59903,1,0
256,192,60069,2,0,C|256:128,1,50
256,142,60569,1,0
256,64,61069,5,0
256,64,61403,2,2,C|256:128,1,50
272,128,61903,2,0,C|208:128,1,50
144,128,62736,5,0
144,176,63069,1,0
192,176,63403,2,0,C|192:112,1,50
192,126,63903,1,0
192,126,64069,1,0
240,128,64403,1,0
240,128,64569,1,0
288,176,65069,5,0
304,208,65236,1,0
304,240,65403,2,0,C|272:272|256:256,1,50
256,240,65903,1,0
256,192,66236,1,0
224,176,66403,5,0
208,208,66569,1,0
208,240,66736,2,0,C|240:272|256:256,1,50
256,240,67236,1,0
256,192,67569,1,0
288,176,67736,5,0
304,208,67903,1,0
304,240,68069,2,0,C|272:272|256:256,1,50
256,240,68569,1,0
256,192,68903,2,0,C|256:128,1,50
256,142,69403,1,4
256,64,69736,5,0
272,112,70069,1,0
240,112,70236,1,0
256,160,70569,2,0,C|256:224,1,50
256,210,71069,2,0,C|336:208,1,75
320,208,71736,2,0,C|319:144,1,50
319,158,72236,1,2
288,160,72403,1,2
256,160,72569,1,2
224,160,72736,1,6
256,272,83403,6,0,C|288:224,1,50
272,176,84070,6,0,C|192:176,1,75
197,176,84736,2,0,C|288:176,1,75
352,176,85736,1,0
352,176,85903,2,0,C|288:128,1,75
292,130,86570,5,0
292,130,86736,2,0,C|224:128,1,50
208,128,87236,1,0
176,128,87403,1,0
176,160,87570,1,0
176,192,87736,1,0
208,208,87903,1,0
240,208,88070,6,2,C|304:176,1,50
224,176,88736,2,2,C|288:144,1,50
288,128,89236,1,0
256,112,89403,6,0,C|176:112,1,75
181,112,90070,2,0,C|272:112,1,75
304,112,90903,1,0
304,144,91070,1,0
304,176,91236,1,0
304,208,91403,1,0
256,208,91736,5,0
256,176,91903,1,0
256,144,92070,2,4,C|240:112|192:160,4,100
288,208,95236,5,0
288,208,95403,2,0,C|208:208,1,75
213,208,96070,2,0,C|224:128,1,75
223,133,96736,2,0,C|304:128,1,75
297,128,97403,2,0,C|288:208,1,75
288,202,98070,2,0,C|208:208,1,75
213,207,98736,2,0,C|224:128,1,75
223,132,99403,2,0,C|304:128,1,75
297,128,100070,2,0,C|288:208,1,75
288,202,100736,2,0,C|208:208,1,75
213,207,101403,2,0,C|224:128,1,75
223,132,102070,2,0,C|304:128,1,75
297,128,102736,5,0
288,176,103070,1,0
288,176,103236,1,0
288,176,103403,1,0
256,208,103736,1,0
256,208,103903,1,0
256,208,104070,1,0
256,160,104403,1,0
256,112,104736,1,4
256,192,118736,6,0,C|256:80,2,100
208,192,120403,1,0
208,160,120570,1,0
208,128,120736,2,0,C|272:128,1,50
256,160,121236,1,0
256,192,121403,2,0,C|256:304,4,100
256,192,124236,5,0
256,192,124403,1,0
256,160,124570,1,0
256,160,124736,1,0
256,160,124903,1,0
256,128,125070,1,0
256,128,125236,1,0
288,128,125403,5,0
288,128,125570,1,0
288,128,125736,1,0
288,160,125903,1,0
288,160,126070,1,0
288,192,126236,1,0
288,192,126403,1,0
288,192,126570,1,0
256,192,126736,5,0
256,192,126903,1,0
256,192,127070,1,0
256,160,127236,1,0
256,160,127403,1,0
256,160,127570,1,0
256,128,127736,1,0
256,128,127903,1,0
224,128,128070,5,0
224,128,128236,1,0
224,128,128403,1,0
224,160,128570,1,0
224,160,128736,1,0
224,192,128903,1,0
224,192,129070,1,0
224,192,129236,1,0
256,192,129403,5,0
256,192,129570,1,0
256,192,129736,1,0
256,160,129903,1,0
256,160,130070,1,0
256,160,130236,1,0
256,128,130403,1,0
256,128,130570,1,0
288,128,130736,5,0
288,128,130903,1,0
288,128,131070,1,0
288,160,131236,1,0
288,160,131403,1,0
288,192,131570,1,0
288,192,131736,1,0
288,192,131903,1,0
256,192,132070,5,0
256,192,132236,1,0
256,192,132403,1,0
256,160,132570,1,0
256,160,132736,1,0
256,160,132903,1,0
256,128,133070,1,0
256,128,133236,1,0
224,128,133403,5,0
224,128,133570,1,0
224,128,133736,1,0
224,160,133903,1,0
224,160,134070,1,0
224,192,134236,1,0
224,192,134403,1,0
224,192,134570,1,0
256,192,134736,5,4
304,96,136736,5,4
208,96,137403,1,4
336,128,140070,5,0
304,128,140236,1,0
272,128,140403,1,0
240,128,140570,1,0
208,128,140736,1,0
208,176,141070,5,0
208,224,141403,1,0
256,224,141736,1,0
304,224,142070,2,0,C|304:112,1,100
240,128,143236,5,0
240,128,143403,2,0,C|240:192,1,50
240,224,144070,1,0
272,192,144403,1,0
304,224,144736,1,0
176,128,145403,5,0
208,128,145570,1,0
240,128,145736,1,0
272,128,145903,1,0
304,128,146070,1,0
304,176,146403,5,0
304,224,146736,1,0
256,224,147070,1,0
208,224,147403,1,0
208,176,147736,5,0
208,144,147903,1,0
208,112,148070,1,0
240,80,148403,1,0
272,112,148736,1,0
304,80,149070,1,0
336,112,149403,1,4
208,304,161403,6,4,C|288:304,1,75
288,240,162403,1,0
240,240,162736,1,0
192,240,163069,1,0
192,240,163236,1,0
192,176,163736,1,0
192,176,163903,1,0
192,176,164069,1,0
336,176,165069,5,0
336,176,165236,1,0
336,176,165403,1,0
336,176,165569,1,0
288,176,165903,1,0
288,176,166069,1,0
256,176,166236,1,0
256,176,166403,1,0
256,176,166569,1,0
256,176,166736,1,0
208,112,167236,6,0,C|320:112,1,100
352,112,168236,1,0
352,112,168403,1,0
352,112,168569,1,0
400,192,169403,2,4,C|192:192,2,200
400,144,172403,5,0
400,144,172569,2,0,C|336:144,1,50
272,144,173403,2,0,C|208:144,1,50
222,144,173903,2,0,C|160:144,1,50
96,144,174736,2,0,C|96:80,1,50
96,94,175236,2,0,C|368:96,1,250
352,160,177403,6,0,C|272:160,1,75
224,160,178236,2,0,C|160:160,1,50
174,160,178736,2,0,C|112:160,1,50
112,208,179403,2,0,C|224:208,1,100
288,208,180569,2,0,C|352:208,1,50
112,96,182736,6,0,C|112:160,1,50
112,144,183236,2,0,C|176:144,1,50
240,144,184069,2,0,C|304:144,1,50
290,144,184569,2,0,C|352:144,1,50
416,144,185403,2,0,C|416:240,1,75
416,219,186069,2,0,C|256:208,1,150
160,208,187736,6,0,C|160:144,1,50
240,160,188569,5,0
320,160,189069,6,0,C|320:224,1,50
400,208,189903,5,0
400,128,190403,6,0,C|336:96,1,50
256,96,191403,1,0
256,160,192069,5,6
256,208,192403,2,6,C|256:240,1,25
256,272,192903,2,6,C|256:304,3,25
400,96,203569,5,4
368,96,203736,1,0
336,96,203903,1,0
304,96,204069,2,0,C|192:96,1,100
208,144,205069,2,0,C|208:208,1,50
240,192,205569,1,0
272,192,205736,1,0
304,192,205903,1,0
336,192,206069,1,0
368,208,206236,1,0
384,240,206403,1,0
384,272,206569,1,0
352,272,206736,6,0,C|240:272,1,100
252,272,207569,2,0,C|160:272,1,75
144,272,208236,1,0
144,240,208403,1,0
144,208,208569,2,0,C|144:144,1,50
176,160,209069,5,0
208,160,209236,1,0
240,160,209403,1,0
272,160,209569,1,0
304,160,209736,1,0
336,160,209903,2,0,C|336:224,1,50
336,256,210569,5,0
304,256,210736,1,0
272,256,210903,1,0
240,256,211069,1,0
208,256,211236,1,0
160,256,211569,5,0
160,224,211736,1,0
160,192,211903,1,0
160,160,212069,1,0
208,160,212403,1,0
256,160,212736,2,0,C|320:160,1,50
304,192,213236,1,0
304,240,213569,5,0
272,240,213736,1,0
240,240,213903,1,0
208,240,214069,1,0
208,192,214403,5,0
208,160,214569,1,0
208,128,214736,1,0
71,128,224736,6,4,C|103:128,1,25
96,128,225069,2,4,C|167:128,1,50
224,128,225903,2,0,C|224:208,1,75
224,203,226736,1,0
304,208,227403,6,0,C|304:144,1,50
304,112,228069,1,0
352,112,228403,1,0
352,112,228569,2,0,C|352:192,1,75
352,224,229403,1,0
432,240,229903,2,0,C|432:160,1,75
432,112,230736,5,0
352,112,231236,1,0
352,144,231403,1,0
352,176,231569,1,0
352,208,231736,1,0
304,208,232069,1,0
208,208,232736,6,0,C|208:144,1,50
208,112,233403,1,0
160,112,233736,1,0
160,112,233903,2,0,C|160:192,1,75
160,187,234569,1,0
160,240,234903,2,0,C|112:240,1,25
96,224,235403,6,4,C|96:192,1,25
96,199,235736,2,4,C|96:128,1,50
224,128,236569,2,4,C|224:208,1,75
224,203,237403,1,4
304,208,238069,6,0,C|304:144,1,50
304,112,238736,1,0
352,112,239069,1,0
352,112,239236,2,0,C|352:192,1,75
352,224,240069,1,0
400,240,240403,1,0
432,240,240569,2,0,C|432:160,1,75
432,112,241403,5,4
352,112,241903,1,4
352,192,242403,1,4
304,192,242736,1,4
208,192,243403,6,0,C|208:128,2,50
160,192,244569,1,0
160,112,245069,1,0
112,112,245403,1,0
80,144,245736,5,2
80,144,246069,1,2
80,144,246403,1,2
64,192,246736,5,4
112,192,247069,1,0
112,192,247236,1,0
112,192,247403,2,0,C|224:192,1,100
272,192,248403,5,0
272,192,248569,1,0
272,160,248736,1,0
272,160,248903,1,0
272,128,249069,1,0
272,128,249236,1,0
272,128,249403,1,0
320,128,249736,1,0
320,128,249903,1,0
320,128,250069,2,0,C|320:192|352:208,1,100
416,208,251236,6,0,C|448:160|416:96,1,125
368,96,252403,1,0
368,96,252569,1,0
368,96,252736,2,0,C|256:96,1,100
224,96,253736,5,0
224,128,253903,1,0
224,160,254069,2,0,C|224:224,1,50
240,210,254569,1,0
272,208,254736,1,0
320,208,255069,1,0
320,208,255236,1,0
320,304,255903,2,0,C|416:144,1,175
448,192,257403,5,4
400,192,257736,1,0
400,192,257903,1,0
400,192,258069,2,0,C|288:192,1,100
240,192,259069,5,0
240,192,259236,1,0
240,160,259403,1,0
240,160,259569,1,0
240,128,259736,1,0
240,128,259903,1,0
240,128,260069,1,0
192,128,260403,1,0
192,128,260569,1,0
192,128,260736,2,0,C|192:192|160:208,1,100
112,208,261903,2,0,C|112:80,1,125
160,80,263069,5,0
160,80,263236,1,0
160,80,263403,2,0,C|272:80,1,100
304,80,264403,5,0
304,112,264569,1,0
304,144,264736,1,0
304,176,264903,1,0
304,208,265069,1,0
304,240,265236,1,0
256,192,265403,12,0,266736
256,192,267736,12,0,269403
352,96,293236,5,0
352,96,293403,2,4,C|176:96,1,175
177,96,294736,2,4,C|176:192,1,75
176,208,295403,2,0,C|240:208,2,50
176,256,296403,5,2
224,256,296736,1,0
224,256,296903,1,0
272,256,297236,1,2
320,256,297569,1,0
320,256,297736,1,0
368,256,298069,1,2
368,208,298403,5,0
368,176,298569,1,0
368,144,298736,2,0,C|304:144,1,50
272,144,299403,1,0
272,192,299736,1,0
272,240,300069,2,0,C|208:240,1,50
192,240,300569,5,0
192,176,301069,1,0
192,176,301236,1,0
192,176,301403,1,0
192,112,301903,1,0
256,112,302403,1,0
256,160,302736,1,0
160,160,303403,5,0
160,96,303736,1,0
160,96,303903,1,0
160,96,304069,2,0,C|336:96,1,175
335,96,305403,2,0,C|336:192,1,75
336,208,306069,2,0,C|272:208,2,50
336,256,307069,5,2
288,256,307403,1,0
288,256,307569,1,0
240,256,307903,1,2
192,256,308236,5,0
192,256,308403,1,0
144,256,308736,1,0
144,256,308903,1,0
144,208,309236,2,0,C|144:96,1,100
208,96,310403,1,0
256,112,310736,2,0,C|256:192,1,75
320,192,311736,2,0,C|320:128,1,50
320,80,312569,1,0
192,80,313403,5,0
192,112,313569,1,0
192,144,313736,1,0
192,176,313903,1,0
224,176,314069,1,0
224,144,314236,1,0
224,112,314403,1,0
224,80,314570,1,4
256,80,314736,6,0,C|320:80,1,50
352,80,315403,1,0
352,80,315570,1,0
400,80,315903,1,0
400,112,316070,6,0,C|336:112,1,50
304,112,316736,1,0
304,112,316903,1,0
256,112,317236,1,0
256,144,317403,6,0,C|320:144,1,50
352,144,318070,1,0
352,144,318236,1,0
400,144,318570,1,0
400,176,318736,6,0,C|336:176,1,50
304,176,319403,1,0
304,176,319570,1,0
256,176,319903,1,0
256,208,320070,6,0,C|256:272,1,50
208,256,320736,1,0
208,256,320903,1,0
208,208,321236,2,0,C|208:144,1,50
208,112,321903,1,0
208,112,322070,1,0
256,112,322403,1,0
256,160,322736,2,0,C|256:224,1,50
256,256,323403,1,0
256,256,323570,1,0
256,304,323903,1,0
256,192,324070,12,4,324736
256,80,325403,6,4,C|192:80,1,50
160,80,326070,1,4
160,80,326236,1,4
112,80,326570,1,4
112,112,326736,6,0,C|176:112,1,50
208,112,327403,1,0
208,112,327570,1,0
256,112,327903,1,0
256,144,328070,6,4,C|192:144,1,50
160,144,328736,1,4
160,144,328903,1,4
112,144,329236,1,4
112,176,329403,6,0,C|176:176,1,50
208,176,330070,1,0
208,176,330236,1,0
256,176,330570,1,0
256,208,330736,6,0,C|256:272,1,50
304,256,331403,1,0
304,256,331570,1,0
304,208,331903,2,0,C|304:144,1,50
304,112,332570,1,0
304,112,332736,1,0
256,112,333070,1,0
256,160,333403,2,0,C|256:240,2,75
208,160,334736,1,0
256,192,335070,12,0,336070
368,112,349570,1,0
368,112,349736,1,0
368,112,349903,1,0
368,112,350070,1,0
368,112,350236,2,0,C|304:112,1,50
318,112,350736,1,0
318,112,350903,1,0
318,112,351070,1,0
318,112,351236,1,0
272,112,351570,1,0
272,112,351736,1,0
272,112,351903,1,0
224,112,352236,5,0
224,112,352403,1,0
224,112,352570,1,0
224,112,352736,1,0
224,112,352903,1,0
176,112,353236,2,0,C|112:112,3,50
128,208,354903,5,0
176,208,355236,1,0
176,208,355403,1,0
176,208,355570,1,0
224,208,355903,2,0,C|224:144,3,50
224,112,357236,5,0
224,112,357570,1,0
224,112,357736,1,0
224,112,357903,1,0
224,112,358070,1,0
288,112,358570,5,0
288,112,358903,1,0
288,112,359070,1,0
288,112,359236,1,0
288,112,359403,1,0
240,112,359736,5,0
240,112,359903,1,0
192,96,360236,5,0
192,96,360403,1,0
192,96,360570,1,0
192,96,360736,1,0
192,96,360903,2,0,C|192:160,1,50
192,146,361403,1,0
192,146,361570,1,0
192,146,361736,1,0
192,146,361903,1,0
192,192,362236,1,0
192,192,362403,1,0
192,192,362570,1,0
192,240,362903,5,0
192,240,363070,1,0
192,240,363236,1,0
192,240,363403,1,0
192,240,363570,1,0
192,288,363903,2,0,C|192:352,3,50
288,336,365570,5,0
288,288,365903,1,0
288,288,366070,1,0
288,288,366236,1,0
288,240,366570,2,0,C|224:240,3,50
192,240,367903,5,0
192,240,368236,1,0
192,240,368403,1,0
192,240,368570,1,0
192,240,368736,1,0
192,176,369236,5,0
192,176,369570,1,0
192,176,369736,1,0
192,176,369903,1,0
192,176,370070,1,0
192,224,370403,5,0
192,224,370570,1,0
320,224,371403,5,0
320,176,371736,1,0
320,176,371903,1,0
320,128,372236,1,0
320,80,372570,1,0
272,80,372903,1,0
192,80,373403,6,0,C|192:192,1,100
192,180,374236,1,0
256,192,374736,1,0
256,192,374903,1,0
256,192,375070,1,0
256,192,375236,1,0
256,144,375570,5,0
256,144,375736,1,0
256,144,375903,1,0
256,144,376070,2,0,C|256:304,1,150
256,294,377236,1,0
256,240,377570,1,0
256,192,377903,1,0
256,144,378236,1,0
256,80,378736,1,0
256,192,379403,12,0,380736
432,64,381236,6,0,C|384:112,1,50
400,96,381736,2,0,C|368:128,1,25
382,113,382070,1,0
336,128,382403,1,0
336,128,382570,1,0
288,128,382903,1,0
288,176,383236,1,0
240,176,383570,1,0
240,128,383903,6,0,C|240:64,1,50
240,78,384403,2,0,C|208:80,1,25
176,80,384736,1,4
176,160,385236,6,0,C|112:160,1,50
126,160,385736,2,0,C|96:160,1,25
64,160,386070,1,4
64,112,386403,5,0
64,112,386570,1,0
96,80,386903,1,0
128,80,387070,2,0,C|160:112,1,25
146,97,387403,1,0
192,112,387736,1,0
192,112,387903,1,0
240,128,388236,1,0
240,176,388570,1,0
288,176,388903,1,0
256,240,389403,6,0,C|256:272,3,25
80,64,391903,6,0,C|128:112,1,50
112,96,392403,2,0,C|144:128,1,25
130,113,392736,1,0
176,128,393070,1,0
176,128,393236,1,0
224,128,393570,1,0
224,176,393903,1,0
272,176,394236,1,0
272,128,394570,6,0,C|272:64,1,50
272,78,395070,2,0,C|304:80,1,25
336,80,395403,1,4
336,160,395903,6,0,C|400:160,1,50
386,160,396403,2,0,C|416:160,1,25
448,160,396736,1,4
448,112,397070,5,0
448,112,397236,1,0
416,80,397570,1,0
384,80,397736,2,0,C|352:112,1,25
366,97,398070,1,0
320,112,398403,1,0
320,112,398570,1,0
272,128,398903,1,0
272,176,399236,1,0
224,176,399570,1,0
256,240,400070,6,4,C|256:272,3,25
368,96,426903,5,0
320,96,427236,1,0
288,96,427403,2,0,C|224:96,1,50
208,96,427903,1,0
176,96,428070,1,0
144,96,428236,1,0
128,112,428403,1,0
128,144,428570,1,0
144,160,428736,1,0
192,160,429070,5,0
224,160,429236,2,0,C|288:160,1,50
304,160,429736,1,0
336,176,429903,1,0
336,208,430070,1,0
336,240,430236,1,0
304,256,430403,1,0
272,256,430570,2,0,C|208:256,1,50
144,256,431570,5,0
144,224,431736,1,0
144,192,431903,2,0,C|224:192,1,75
219,192,432570,2,0,C|224:112,1,75
223,117,433236,2,0,C|288:112,2,50
288,112,434403,1,0
288,144,434736,6,0,C|288:208,1,50
288,194,435236,1,0
256,288,436070,5,0
256,256,436236,1,0
256,224,436403,1,0
256,192,436570,1,0
256,160,436736,1,0
256,128,436903,1,0
256,96,437070,1,4
320,240,437570,5,0
320,208,437736,1,0
320,176,437903,1,0
320,144,438070,2,0,C|304:80,1,50
336,80,438570,1,0
384,80,438903,1,0
384,112,439070,1,0
384,144,439236,1,0
368,160,439403,1,0
320,160,439736,5,0
288,160,439903,2,0,C|224:160,1,50
208,160,440403,1,0
176,176,440570,1,0
176,208,440736,2,0,C|208:256,1,50
240,256,441236,2,0,C|304:256,1,50
368,256,442236,5,0
368,224,442403,1,0
368,192,442570,2,0,C|288:192,1,75
293,192,443236,2,0,C|288:112,1,75
289,117,443903,2,0,C|224:112,2,50
224,112,445070,1,0
224,144,445403,6,0,C|224:208,1,50
224,194,445903,1,0
256,192,446403,12,4,448070
240,240,464070,2,0,C|192:208,1,50
256,208,464736,2,0,C|304:160,1,50
240,176,465403,2,0,C|192:144,1,50
256,144,466070,2,0,C|304:96,1,50
272,96,466570,1,0
240,80,466736,5,0
176,80,467070,2,0,C|176:144,1,50
176,192,467736,1,0
176,256,468070,2,0,C|240:272,3,50
272,240,469403,6,0,C|320:208,1,50
256,208,470070,2,0,C|208:160,1,50
272,176,470736,2,0,C|320:144,1,50
256,144,471403,2,0,C|208:96,1,50
240,96,471903,1,0
272,80,472070,5,0
304,80,472236,1,0
336,80,472403,1,0
352,112,472570,1,0
352,144,472736,1,0
320,192,473070,1,0
304,224,473236,1,0
272,304,474070,1,0
272,240,474736,6,0,C|320:208,1,50
256,208,475403,2,0,C|208:160,1,50
272,176,476070,2,0,C|320:144,1,50
256,144,476736,2,0,C|208:96,1,50
240,96,477236,1,0
272,80,477403,5,0
336,80,477736,2,0,C|336:144,1,50
336,192,478403,1,0
336,256,478736,2,0,C|272:272,3,50
256,224,480070,5,0
256,224,480236,1,0
256,224,480403,1,0
256,224,480570,2,0,C|256:160,1,50
256,174,481070,2,0,C|256:112,1,50
208,144,481736,1,0
208,144,481903,1,0
208,144,482070,1,0
208,208,482403,5,0
208,208,482570,1,0
208,208,482736,1,0
272,208,483070,5,0
272,208,483236,1,0
272,208,483403,1,0
272,144,483736,5,0
272,144,483903,1,0
272,144,484070,1,0
208,144,484403,1,0
240,192,484736,1,0
240,192,484903,1,0
240,192,485070,1,0
240,192,485236,1,0
240,192,485403,1,4
400,192,506736,6,0,C|400:128|368:128,1,75
368,112,507403,2,0,C|368:176|352:176,1,75
336,160,508070,2,0,C|336:128,1,25
288,160,508570,1,0
256,240,509236,5,0
272,208,509403,2,0,C|208:208,1,50
224,160,510070,2,0,C|288:160,1,50
272,112,510736,2,0,C|176:112,1,75
112,192,512070,6,0,C|112:128|144:128,1,75
144,112,512736,2,0,C|144:176|160:176,1,75
176,160,513403,2,0,C|176:128,1,25
224,160,513903,1,0
256,256,514570,5,0
256,256,514736,1,0
256,208,515070,1,0
256,160,515403,1,0
256,160,515570,1,0
256,160,515736,1,0
256,112,516070,1,0
256,112,516236,1,0
256,112,516403,1,0
256,240,524070,6,0,C|256:128,2,100
256,112,526570,5,0
256,112,526736,1,0
256,160,527070,1,0
256,208,527403,1,0
256,208,527570,1,0
256,208,527736,1,0
256,256,528070,1,0
256,256,528236,1,0
256,256,528403,1,0
256,320,528903,5,0
256,320,529070,1,0
256,320,529236,1,0
256,320,529403,2,0,C|256:256,1,50
256,270,529903,1,0
256,270,530070,2,0,C|256:208,1,50
256,220,530570,1,0
256,220,530736,2,0,C|256:160,2,50
256,160,532070,6,0,C|256:96,1,50
256,110,532570,1,0
256,110,532736,2,0,C|256:48,2,50
256,160,533736,1,0
256,160,533903,1,0
256,160,534070,1,0
256,240,534736,5,0
256,240,534903,1,0
256,240,535070,2,0,C|256:176,1,50
256,192,536070,12,4,537236
256,192,547903,1,0
256,192,548070,2,0,C|256:128,5,50
256,80,550403,1,0
256,80,550570,1,0
256,80,550736,1,0
320,80,551236,1,0
368,80,551570,2,0,C|368:144,1,50
368,130,552070,2,0,C|368:192,1,50
256,192,553070,12,0,554736
192,96,555570,5,0
192,96,555736,1,0
192,96,555903,1,0
192,96,556070,2,0,C|192:256,1,150
192,246,557236,1,0
192,246,557403,2,0,C|256:240,3,50
288,224,558736,5,4
288,192,558903,1,0
288,160,559070,1,0
240,160,559403,1,0
240,128,559570,1,0
240,96,559736,2,4,C|272:64|342:64|368:112,1,150
336,112,560903,1,0
336,144,561070,1,0
336,176,561236,1,0
336,208,561403,1,0
288,208,561736,1,0
288,176,561903,1,0
288,144,562070,1,0
240,144,562403,1,0
240,192,562736,1,0
160,160,563403,1,4
224,224,564070,5,0
224,192,564236,1,0
224,160,564403,1,0
272,160,564736,1,0
272,128,564903,1,0
272,96,565070,2,2,C|240:64|170:64|144:112,1,150
176,112,566236,1,0
176,144,566403,1,0
176,176,566570,1,0
176,208,566736,1,0
224,208,567070,1,2
224,176,567236,1,2
224,144,567403,1,2
272,144,567736,1,2
272,192,568070,2,6,C|384:160,1,100
377,96,569403,6,0,C|345:96,1,25
352,96,569736,2,0,C|313:96,1,25
327,96,570070,1,0
272,96,570570,1,0
240,96,570736,1,0
208,96,570903,1,0
176,96,571070,1,0
128,96,571403,1,0
128,144,571736,5,0
160,144,571903,1,0
192,144,572070,1,0
240,144,572403,1,0
288,144,572736,1,0
288,112,572903,1,0
256,112,573070,1,0
224,112,573236,1,0
192,112,573403,2,0,C|80:160,1,100
135,96,574736,6,0,C|167:96,1,25
160,96,575070,2,0,C|199:96,1,25
185,96,575403,1,0
240,96,575903,1,0
272,96,576070,1,0
320,96,576403,1,0
368,96,576736,1,0
384,144,577070,5,0
352,144,577236,1,0
320,144,577403,1,0
272,144,577736,1,0
240,144,577903,1,0
208,144,578070,1,0
256,192,578570,12,0,579403
377,96,585403,6,2,C|345:96,1,25
352,96,585736,2,2,C|313:96,1,25
327,96,586070,1,2
272,96,586570,1,2
240,96,586736,1,2
208,96,586903,1,2
176,96,587070,1,2
128,96,587403,1,2
128,144,587736,5,0
160,144,587903,1,0
192,144,588070,1,0
240,144,588403,1,0
272,144,588570,1,0
304,144,588736,1,0
256,192,589236,12,6,590070
256,192,590570,12,6,591403
256,192,591903,12,6,592736
224,80,593736,2,0,C|224:112,1,25
224,128,594070,2,0,C|224:160,1,25
224,176,594403,2,0,C|224:208,1,25
224,224,594736,2,0,C|304:224,1,75
304,160,595736,2,4,C|304:128,1,25
256,128,596236,5,0
256,128,596403,1,0
256,128,596570,1,0
256,128,596736,1,0
256,128,596903,1,0
256,128,597070,1,0
256,128,597236,1,0
256,128,597403,1,0
256,192,597736,12,0,598070
