osu file format v5

[General]
AudioFilename: NicoDouga.MP3
AudioLeadIn: 0
PreviewTime: -1
Countdown: 1
SampleSet: Normal
StackLeniency: 0.7
Mode: 0
LetterboxInBreaks: 1

[Metadata]
Title:Kumikyoku NicoNicoDouga
Artist:NicoNicoDouga
Creator:Jerrysr
Version:Hard
Source:
Tags:

[Difficulty]
HPDrainRate:4
CircleSize:5
OverallDifficulty:7
SliderMultiplier:1.4
SliderTickRate:2

[Events]
//Background and Video events
0,0,"bg.png"
//Break Periods
2,16799,22446
2,161605,170821
2,208771,213988
2,336299,348464
2,503957,528200
2,537984,547227
//Storyboard Layer 0 (Background)
//Storyboard Layer 1 (Failing)
//Storyboard Layer 2 (Passing)
//Storyboard Layer 3 (Foreground)
//Storyboard Sound Samples
//Background Colour Transformations
3,100,163,162,255

[TimingPoints]
-583,333.333333333333,4,1,0,100,1
245935,333.333333333333,4,1,0,100,1
270767,333.333333333333,4,1,0,100,1
314766,333.222259246918,4,1,0,100,1
371010,333.185250999556,4,1,0,100,1
401780,333.148250971682,4,1,0,100,1
464100,333.370374486054,4,1,0,100,1
528950,333.370374486054,4,1,0,100,1
548127,333.148250971682,4,1,0,100,1
569278,333.148250971682,4,1,0,100,1

[Colours]
Combo1 : 180,180,180
Combo2 : 87,168,91
Combo3 : 88,90,156
Combo4 : 155,89,89
Combo5 : 180,146,75

[HitObjects]
64,192,417,5,0
64,64,750,1,0
64,256,1250,1,0
64,128,1583,1,0
128,128,1750,1,0
192,128,1917,1,0
256,128,2083,1,0
320,128,2250,1,0
320,128,2417,1,0
384,128,2583,1,0
384,128,2750,2,0,B|384:352,1,210
480,256,3583,2,2,B|480:168,1,70
304,112,4250,5,0
352,224,4583,1,0
312,272,4750,1,0
256,160,5083,1,0
168,256,5417,5,0
168,64,5917,1,0
168,248,6417,1,0
168,56,6917,5,0
232,56,7083,1,0
296,56,7250,1,0
296,120,7417,1,0
296,184,7583,1,0
296,248,7750,1,0
360,248,7917,1,0
424,248,8083,2,8,B|424:160,6,70,8|8|8|8|8|8|8
424,328,9583,6,0,B|432:192|344:112|256:88,1,280
344,40,10417,1,2
344,40,10583,1,2
232,96,10917,6,0,B|122:151|87:248|90:338,1,280
152,320,11750,1,2
152,320,11917,1,2
280,320,12250,6,0,B|280:8,1,280
344,40,13083,1,2
344,40,13250,1,2
216,40,13583,6,0,B|216:344,1,280
152,320,14417,1,2
152,320,14583,1,2
120,192,14917,6,0,B|214:269|309:96|401:189,1,280
320,184,15750,1,2
256,192,15917,1,2
448,176,23083,5,2
448,48,23417,1,2
256,48,23917,1,0
256,176,24250,2,0,B|188:279|211:-145|138:222|48:24,1,280
65,54,25083,1,0
65,54,25250,1,0
32,112,25417,6,2,B|88:176,1,70,2|2
120,208,25750,2,2,B|184:152,1,70,2|2
224,128,26083,2,2,B|280:192,1,70
312,224,26417,2,2,B|376:168,1,70
464,96,26917,5,0
336,96,27250,1,0
272,96,27417,1,0
144,96,27750,1,0
144,224,28083,1,0
328,224,28583,1,0
144,224,29083,1,0
328,224,29583,2,0,B|6:336|56:-24,1,420
112,48,30750,5,0
200,48,31083,1,0
200,48,31250,2,0,B|488:48,1,280
472,112,32083,5,0
416,144,32250,1,0
432,208,32417,1,0
376,232,32583,1,0
320,256,32750,1,0
288,200,32917,1,0
232,224,33083,1,0
176,248,33250,1,2
256,192,33750,5,0
256,192,34083,1,0
200,192,34417,2,0,B|237:81|374:152|340:273|210:301|192:160,1,315
200,192,35583,1,0
160,136,35750,1,0
120,80,35917,1,0
248,80,36250,2,0,B|408:80,1,140
388,80,37083,1,0
200,48,37583,5,0
72,32,37917,2,0,B|72:136,1,70,0|0
72,104,38417,1,0
72,232,38750,6,0,B|320:232,2,210
256,192,40583,12,0,43083
112,192,44083,1,0
112,192,44250,1,0
232,192,44583,1,0
232,192,44750,1,0
344,192,45083,1,0
344,192,45250,2,0,B|400:248|424:312,1,140
368,344,45750,1,0
304,360,45917,2,0,B|220:345|159:262|128:192,1,210
96,136,46750,5,0
80,200,46917,2,0,B|96:296|200:328,1,140
224,328,47417,2,0,B|332:344|392:256,1,140
400,248,47917,1,0
256,184,48250,2,0,B|256:112,2,70
208,304,49083,5,0
152,264,49250,1,0
104,216,49417,2,0,B|47:120|128:64,1,140
152,48,49917,1,0
296,56,50417,5,0
352,80,50583,1,0
392,128,50750,2,0,B|432:201|368:280,1,140
336,304,51250,1,0
248,344,51750,5,0
192,320,51917,1,0
136,288,52083,2,0,B|24:184,1,140
48,128,52583,2,0,B|160:232,1,140
184,152,53250,5,2
328,152,53583,5,2
184,272,53917,5,2
320,272,54250,5,2
256,152,54750,5,0
304,192,54917,2,0,B|416:288,1,140
408,192,55417,2,0,B|296:288,1,140
264,240,55917,1,0
224,152,56250,1,0
168,192,56417,1,0
112,232,56583,2,0,B|124:310|208:328,1,140
240,280,57083,1,0
304,208,57417,6,0,B|360:136,4,70
144,208,58417,2,0,B|88:144,1,70
216,208,58917,1,0
216,208,59250,1,0
216,304,59750,6,0,B|56:304,1,140
72,192,60417,1,0
72,128,60583,1,0
184,40,61083,6,0,B|336:40,1,140
296,152,61750,1,0
328,208,61917,1,0
280,256,62250,1,0
104,192,62750,6,0,B|200:64,2,140
176,256,63750,1,0
232,288,63916,1,0
296,280,64083,1,0
376,184,64416,2,0,B|380:246|312:264,1,70
440,296,65083,5,0
480,256,65250,1,0
424,224,65417,2,0,B|409:276|336:336,1,140
296,288,65917,1,0
256,344,66250,1,0
192,352,66417,5,0
136,320,66583,1,0
112,264,66750,2,0,B|40:120,1,140
96,104,67250,2,0,B|168:248,1,140
208,264,67750,5,0
280,272,67917,1,0
336,232,68083,2,0,B|392:165|351:89|312:72,1,175
256,72,68583,2,0,B|148:83|192:184,2,140
312,104,69417,1,2
384,160,69750,1,0
384,160,70083,1,0
336,280,70417,2,2,B|336:184,1,70
104,152,70917,2,2,B|224:152,1,70
288,152,71583,2,2,B|368:152,1,70
184,232,72250,5,2
184,152,72417,1,2
184,232,72583,1,2
184,152,72750,1,2
432,192,73417,5,0
304,192,73750,1,0
176,192,74083,1,0
48,192,74417,5,0
120,192,74583,1,0
192,192,74750,1,0
264,192,74917,1,0
336,192,75083,1,0
408,192,75250,1,0
480,192,75417,1,0
480,48,75917,6,2,B|384:48,1,70
336,48,76250,1,0
264,48,76417,1,0
192,48,76583,1,0
120,48,76750,1,0
48,48,76917,1,0
48,128,77083,1,0
120,128,77250,2,2,B|192:128,1,70
256,128,77583,5,0
384,128,77917,2,0,B|304:128,3,70,2|2|2|2
184,128,78750,5,0
56,128,79083,1,0
56,256,79417,1,0
184,256,79750,2,2,B|256:256,3,70
344,168,80583,1,0
408,168,80750,1,0
472,168,81083,1,0
408,168,81250,1,0
344,168,81583,1,0
408,168,81750,1,0
472,168,81917,1,0
256,192,82083,12,0,82750
48,48,83417,2,2,B|128:48,1,70
136,104,83750,2,2,B|216:104,1,70
224,160,84083,2,2,B|368:160,1,140
364,160,84750,1,0
432,112,85250,2,0,B|400:72|360:32,1,70
328,40,85583,1,0
264,32,85750,1,0
200,48,85917,2,0,B|120:88,1,70
32,152,86417,5,0
56,208,86583,1,0
80,264,86750,1,0
168,352,87083,2,0,B|522:365|472:200,1,350
456,192,88083,5,8
384,88,88417,5,8
312,192,88750,5,8
256,80,89083,5,8
224,136,89250,5,8
192,192,89417,1,8
440,192,90083,1,8
440,192,90583,2,2,B|440:272,5,70
312,280,91750,6,0,B|368:184|336:88|296:48,1,210
264,40,92417,1,0
224,88,92583,1,0
264,136,92750,1,0
224,184,92917,1,0
264,232,93083,1,0
224,280,93250,1,0
184,232,93417,2,8,B|136:232|112:280,6,70
64,184,94750,6,0,B|157:55|256:40,1,210
288,48,95417,2,0,B|472:168,1,210
464,224,96083,2,0,B|280:352,1,210
224,344,96750,2,0,B|48:224,1,210
48,160,97417,6,0,B|256:32,1,210
288,48,98083,2,0,B|472:168,1,210
464,224,98750,2,0,B|280:352,1,210
224,344,99417,2,0,B|48:224,1,210
48,160,100083,5,0
96,80,100333,1,0
184,40,100583,1,8
248,32,100750,1,0
336,48,101000,1,0
416,96,101250,1,8
448,152,101417,1,0
448,248,101667,1,0
384,320,101917,1,8
320,328,102083,1,0
240,280,102333,1,0
240,184,102583,1,0
256,192,102750,12,0,104583
48,192,105083,5,0
48,128,105250,1,0
48,64,105417,2,0,B|200:64,3,140
188,64,106583,1,0
188,127,106750,2,0,B|188:271,1,140
188,331,107417,1,2
440,328,108083,5,0
464,200,108417,1,0
448,136,108583,1,0
408,88,108750,1,0
296,32,109083,1,0
232,32,109250,1,0
112,64,109583,2,0,B|73:97|56:152,1,70
69,118,110083,1,2
40,240,110417,6,0,B|80:336|184:320,1,140
143,321,111083,1,0
264,344,111417,1,0
392,336,111750,2,0,B|464:320,1,70
456,256,112083,2,0,B|384:240,1,70
392,176,112417,2,0,B|472:168,1,70
456,104,112750,2,0,B|312:76|504:24,1,140
320,32,113417,2,8,B|228:17|168:64,1,140
128,80,113917,1,8
88,128,114083,1,8
72,192,114250,1,8
88,256,114417,1,8
128,304,114583,1,8
184,336,114750,1,8
248,344,114917,2,0,B|396:243|66:160|256:48,1,350
120,56,116083,5,2
48,160,116417,1,2
64,280,116750,1,2
176,336,117083,1,8
240,344,117250,1,8
304,336,117417,1,8
416,280,117750,1,2
432,216,117917,1,2
424,152,118083,1,8
392,96,118250,1,8
336,64,118417,1,8
328,192,118750,2,2,B|272:112|200:256|144:128,1,210
192,320,120417,5,0
192,256,120583,1,0
192,192,120750,1,0
320,192,121083,5,0
320,256,121250,1,0
320,320,121417,1,0
56,120,124083,6,0,B|64:64|120:48,1,70
152,56,124417,2,0,B|200:72|200:136,1,70
248,136,124750,1,0
304,104,124917,2,0,B|312:56|368:64,1,70
416,72,125250,5,0
456,120,125417,1,0
448,184,125583,2,0,B|408:184|384:152,1,70
320,144,125917,1,0
272,192,126083,2,0,B|229:219|184:168,1,70
176,128,126417,2,0,B|168:80|112:88,1,70
72,120,126750,6,0,B|24:160|48:208,3,70
64,240,127417,2,0,B|104:200|152:232,1,70
176,264,127750,1,0
232,232,127916,2,0,B|240:192|304:200,1,70
286,199,128250,2,0,B|240:193|232:233,1,70,0|0
286,199,128583,1,0
344,224,128750,1,0
408,208,128916,1,0
464,240,129083,2,0,B|488:296|424:328,1,70
400,336,129416,6,0,B|369:307|304:344,3,70
288,280,130083,2,0,B|240:344,1,70
184,336,130416,1,0
176,272,130583,1,0
232,288,130750,2,0,B|160:360,1,70
152,280,131083,2,0,B|208:224,1,70
168,176,131417,2,0,B|104:240,2,70
120,136,131917,5,0
160,88,132083,1,0
208,48,132250,1,0
272,48,132417,1,0
336,48,132583,1,0
304,104,132750,1,0
272,160,132917,1,0
240,216,133083,5,0
176,216,133250,1,0
208,160,133417,1,0
240,104,133583,1,0
176,104,133750,1,0
144,160,133917,1,0
112,216,134083,5,0
144,272,134250,1,0
208,272,134417,1,0
272,272,134583,1,0
304,216,134750,2,0,B|384:168|376:8,1,210
208,56,136750,6,0,B|96:104|96:248,1,210
112,280,137417,6,0,B|240:232|216:72,1,210
80,224,140083,5,8
72,160,140250,1,8
88,96,140417,1,8
136,56,140583,1,8
192,32,140750,2,2,B|288:32,1,70
320,40,141083,1,8
376,72,141250,2,2,B|424:152,1,70
432,192,141583,2,2,B|384:264,1,70
328,344,142083,1,8
72,336,142750,2,2,B|24:240,1,70
136,192,143250,2,2,B|16:192,8,70
66,192,144750,1,2
320,200,145417,5,0
320,136,145583,1,0
360,88,145750,1,0
424,88,145917,1,0
424,160,146083,2,8,B|424:72,1,70
424,88,146417,1,8
296,88,146750,2,0,B|400:88,1,70
368,152,147083,1,8
400,32,147417,2,0,B|456:96,1,70
464,144,147750,1,8
456,208,147917,2,0,B|328:296,1,140
278,302,148417,2,0,B|326:358,1,70
322,355,148750,2,0,B|273:298,1,70,0|0
277,237,149083,1,8
346,140,149417,2,0,B|253:140|282:268,3,140
152,256,150750,5,0
216,256,150917,1,0
280,256,151083,1,0
344,256,151250,1,0
408,256,151417,2,0,B|408:72,1,140
408,116,152083,1,0
296,56,152417,1,0
232,56,152583,1,0
168,56,152750,1,0
40,64,153083,2,0,B|152:216,1,140
248,176,153750,2,0,B|360:48,1,140
368,192,154417,1,2
240,192,154750,1,2
368,192,155083,1,2
240,192,155417,1,2
368,192,155750,1,2
240,192,156083,2,0,B|67:6|612:208|472:0|144:40,1,490
168,72,157417,5,0
424,80,158083,1,0
168,72,158750,1,0
448,328,159750,1,0
360,232,160083,1,0
272,136,160417,1,0
184,40,160750,1,0
184,168,161083,1,0
184,168,161417,1,2
112,56,171583,5,0
112,56,171750,1,0
112,56,171917,1,0
80,112,172083,2,0,B|32:192|104:272,1,140
128,288,172583,2,0,B|176:345|288:320,1,140
376,280,173250,1,0
424,232,173417,2,0,B|492:168|440:64,1,140
424,48,173917,1,0
456,104,174250,2,0,B|479:184|416:240,1,140
376,280,174750,1,0
256,320,175083,2,0,B|11:392|32:88,1,385
304,328,176917,1,8
304,136,177417,1,8
304,328,177917,2,0,B|304:176,1,140
304,56,178583,1,0
304,56,178750,1,0
304,56,179083,1,0
312,176,179417,2,0,B|390:99|280:48,2,140
240,192,180583,1,8
240,192,180917,1,8
80,184,182250,6,0,B|52:76|176:48,1,140
184,40,182750,1,0
312,48,183083,1,0
368,80,183250,1,0
432,184,183583,2,0,B|448:274|336:320,1,140
312,320,184083,1,0
272,192,184417,1,0
224,152,184583,1,0
120,72,184917,1,0
176,184,185250,2,0,B|61:281|208:360,1,210
190,349,185917,1,0
272,352,186083,2,0,B|476:326|476:27|248:24,1,490
336,208,187750,5,0
376,328,188083,2,0,B|466:221,1,140,0|0
466,220,188583,1,0
280,280,189083,1,0
152,280,189417,2,0,B|248:168,1,140
280,280,189917,1,0
256,192,190417,1,0
256,192,190750,1,0
256,192,191417,1,0
368,200,192083,6,0,B|396:140|312:112,1,70
304,104,192417,1,0
240,104,192583,1,0
168,208,192917,2,0,B|164:256|232:288,1,70
320,232,193417,2,2,B|296:312|192:336,1,140
96,296,194083,6,0,L|136:232,1,70
64,344,194583,1,0
133,236,194917,2,0,L|53:164,1,70,0|0
116,65,195417,1,0
176,44,195583,1,0
239,35,195750,1,0
304,38,195917,1,0
366,49,196083,1,0
419,83,196250,1,0
452,137,196417,1,0
461,200,196583,1,0
451,263,196750,1,0
413,314,196917,1,0
358,347,197083,1,0
294,354,197250,1,0
229,351,197417,1,0
169,329,197583,1,0
122,284,197750,1,0
85,231,197917,2,0,B|65:182|88:140,1,70
94,100,198250,6,0,B|123:61|176:52,1,70
210,39,198583,1,0
274,35,198750,2,0,B|377:43|420:118,1,140
440,208,199417,1,0
432,272,199583,1,0
328,344,199917,1,0
360,216,200250,1,0
360,216,200417,1,0
360,216,200583,1,0
360,216,200750,1,0
360,216,200917,1,0
360,216,201083,1,0
360,216,201250,2,0,B|264:208|216:136,1,140
235,161,201750,1,0
235,161,201917,1,0
235,161,202083,1,0
235,161,202250,1,0
235,161,202417,1,0
235,161,202583,2,0,B|144:161|88:209,1,140
48,240,203083,1,0
48,240,203250,1,0
256,192,203583,12,0,208583
40,152,214750,6,0,B|104:72,1,70
128,48,215083,1,0
128,48,215250,1,0
216,160,216083,2,0,B|256:224,1,70
288,272,216417,1,0
288,272,216583,1,0
272,80,217083,1,0
344,96,217417,2,0,B|384:32,3,70
440,144,218250,1,0
440,80,218417,1,0
440,144,218583,1,0
440,208,218750,1,0
440,240,218833,1,0
440,240,218917,2,0,B|273:286|344:112,1,210
80,192,220083,5,0
80,256,220250,1,0
80,320,220417,1,0
144,320,220583,1,0
272,320,220917,2,0,B|416:320,1,140
472,320,221417,1,0
472,256,221583,1,0
256,192,222750,12,0,224083
80,144,224750,6,2,B|80:303,1,140
208,288,225417,1,8
80,144,225917,1,8
272,152,226417,2,2,B|272:312,1,140
304,40,227417,2,0,B|448:40,2,140
304,40,228417,1,0
264,88,228583,2,0,B|40:88,1,210
264,88,229417,1,0
264,216,229750,2,0,B|424:216,2,140
264,216,230750,1,0
176,48,231250,1,0
112,48,231417,1,0
112,112,231583,1,0
112,176,231750,1,0
112,304,232083,1,0
368,312,232750,2,0,B|368:168,1,140
368,40,233417,1,0
240,40,233750,1,0
240,104,233917,1,0
48,96,234417,1,0
48,160,234583,1,0
48,288,234917,1,0
112,288,235083,1,0
440,80,236083,5,0
440,272,236583,1,0
440,80,237083,1,0
312,80,237417,1,0
312,336,238083,1,0
312,208,238417,1,0
184,208,238750,2,0,B|272:208,1,70
254,208,239083,1,0
320,208,239250,2,0,B|320:352,1,140
320,348,239750,1,0
320,216,240083,2,0,B|152:216,1,140
112,216,240583,2,0,B|112:64,1,140
112,76,241083,1,0
112,76,241417,1,0
56,232,241917,6,0,B|56:87|224:56,1,210
167,71,242750,1,0
240,72,243417,2,0,B|384:72,6,140
96,272,246767,6,0,B|12:241|72:152,1,140
128,96,247267,1,0
216,96,247435,1,0
328,272,248434,6,0,B|432:272,3,70
400,200,249101,1,0
400,128,249267,1,0
400,56,249434,2,0,B|256:56,1,140
260,56,249935,1,0
260,56,250101,1,0
136,48,251267,6,0,B|60:76|72:168,1,140
96,216,251767,1,0
144,256,251934,1,0
208,272,252101,2,0,B|299:248|296:144,1,140
304,112,252601,1,0
304,112,252726,1,0
448,72,253767,6,0,B|448:168,5,70
440,208,254767,1,0
400,288,255017,1,0
320,344,255267,1,0
72,296,255934,6,0,B|40:280|32:224,1,70
40,160,256434,1,0
112,56,256767,1,0
240,40,257101,1,0
368,40,257434,1,0
464,120,257768,1,0
464,184,257935,1,0
464,248,258101,1,0
200,72,259101,6,0,B|215:36|272:32,5,70
331,39,260101,1,0
400,48,260434,1,0
456,80,260601,1,0
472,144,260768,1,0
384,160,261934,6,0,B|368:202|304:168,5,70
344,48,263101,1,0
344,112,263267,1,0
344,176,263435,1,0
192,96,264434,6,0,B|142:83|112:128,5,70
104,168,265434,1,0
256,168,266767,1,0
384,168,267767,1,0
256,168,268100,1,0
256,168,269434,1,0
288,320,270767,5,0
408,152,271433,1,0
368,208,271600,1,0
328,264,271767,1,0
224,288,272100,1,0
160,256,272433,1,0
40,200,272767,1,0
80,144,272933,1,0
128,96,273100,1,0
176,48,273267,1,0
176,48,273433,1,0
240,80,274100,1,0
192,128,274267,1,0
144,176,274433,1,0
96,224,274600,1,0
96,224,274767,1,0
224,232,275100,1,0
96,224,275433,1,0
256,264,276100,6,0,B|256:112,1,140
184,192,276767,1,0
256,192,276933,1,0
328,192,277100,1,0
184,192,277433,2,0,B|328:192,1,140
256,120,278100,1,0
256,192,278267,1,0
256,264,278433,1,0
328,192,278767,2,0,B|176:192,1,140
188,192,279433,1,0
256,192,279600,1,0
328,192,279767,1,0
328,192,279933,1,0
328,192,280100,1,0
224,72,281433,5,0
104,240,282100,1,0
144,184,282267,1,0
184,128,282433,1,0
288,96,282767,1,0
352,120,283100,1,0
464,168,283433,1,0
424,224,283600,1,0
384,280,283767,1,0
344,336,283933,1,0
344,336,284100,1,0
408,144,284767,1,0
368,200,284933,1,0
328,256,285100,1,0
288,312,285267,1,0
288,312,285433,1,0
288,184,285767,1,0
288,312,286100,1,0
256,120,286767,6,0,B|256:272,1,140
328,192,287433,1,0
256,192,287600,1,0
184,192,287767,1,0
328,192,288100,2,0,B|184:192,1,140
256,264,288767,1,0
256,192,288933,1,0
256,120,289100,1,0
256,120,289267,1,0
184,192,289433,2,0,B|336:192,1,140
328,192,290100,1,0
184,192,290267,1,0
256,192,290433,1,0
256,192,290600,1,0
256,192,290767,1,0
64,64,293267,5,0
64,64,293350,1,0
64,64,293433,1,0
192,64,293767,1,0
320,64,294100,1,0
448,64,294433,1,0
384,64,294600,1,0
384,64,294683,1,0
384,64,294767,1,0
256,64,295100,1,0
128,64,295433,1,0
128,192,295767,1,0
256,192,296100,1,0
192,80,296433,5,0
192,192,296767,1,0
192,192,296933,1,0
192,80,297267,1,0
192,192,297600,1,0
192,192,297767,1,0
192,80,298100,1,0
312,120,298433,5,0
376,120,298600,1,0
440,120,298767,1,0
192,168,299433,2,0,B|88:56,1,140
104,192,300100,2,0,B|272:368,1,210
248,343,301100,1,0
184,344,301266,1,0
120,344,301433,1,0
312,344,301933,2,0,B|385:300|244:244|360:208,1,140
327,222,302433,1,0
328,96,302766,1,0
448,328,303433,6,0,B|448:200,1,70
448,192,303766,1,0
448,128,303933,2,0,B|352:56,1,70
336,64,305266,1,0
336,64,305350,1,0
336,64,305433,2,0,B|40:64,1,280
312,64,306766,1,0
312,64,307100,1,0
184,64,307433,1,0
184,64,307600,1,0
312,64,307933,1,0
440,48,308266,5,0
392,96,308433,1,0
464,200,308766,1,0
400,272,309016,1,0
328,336,309266,2,0,B|192:336|208:184|40:248,1,280
56,344,310433,1,0
56,344,310766,2,0,B|160:232,1,140
192,192,311266,2,0,B|262:111|308:270|392:152,1,210
379,168,312100,1,0
192,192,312600,1,0
344,256,313933,6,0,B|160:120,1,210
56,64,314766,5,0
128,40,315099,1,0
200,64,315432,1,0
200,64,315682,1,0
200,64,315932,1,0
264,80,316098,2,0,B|264:120,4,35
328,104,316598,2,0,B|328:152,5,35
384,72,317431,5,0
424,136,317765,1,0
384,200,318098,1,0
384,200,318348,1,0
384,200,318598,1,0
448,216,318764,2,0,B|448:264,4,35
384,256,319264,2,0,B|384:304,5,35
288,256,320097,5,0
160,256,320430,1,0
32,256,320764,1,0
32,192,320930,1,0
32,64,321263,1,0
160,64,321597,1,0
288,64,321930,1,0
352,64,322096,1,0
480,64,322430,1,0
480,192,322763,1,0
352,192,323096,1,0
224,192,323429,1,0
224,192,323679,1,0
224,192,323971,1,0
160,208,324262,2,0,B|160:248,4,35
96,232,324845,2,0,B|96:272,4,35,0|0|0|0|0
96,136,325429,5,0
40,192,325762,1,0
96,256,326095,1,0
96,256,326387,1,0
96,256,326637,1,0
416,136,328094,1,0
472,192,328428,1,0
416,240,328761,1,0
416,240,328969,1,0
416,240,329261,1,0
336,336,330760,6,0,B|232:360|184:328,1,140
128,280,331427,1,0
128,280,331593,1,0
88,224,331926,2,0,B|56:144|88:80,1,140
136,40,332593,1,0
87,88,332760,2,0,B|55:176|95:240,1,140
130,288,333426,2,0,B|234:356|346:280,1,210
389,252,334759,2,0,B|476:203|470:123|396:71,1,210
352,56,335425,1,0
352,56,335675,1,0
280,120,335925,2,0,B|290:38,1,70
336,112,349421,5,0
400,112,349587,1,0
400,112,349754,1,0
400,176,349920,1,0
400,208,350004,1,0
400,240,350087,1,0
400,304,350254,2,0,B|312:304,1,70
328,240,350587,1,0
328,176,350754,1,0
328,112,350920,1,0
264,112,351087,1,0
264,176,351253,1,0
264,304,351587,2,0,B|264:232,2,70
368,232,352253,2,0,B|368:192|368:128,1,70
352,96,352586,1,0
304,56,352753,1,0
240,48,352919,2,0,B|184:44|128:88,1,70
120,96,353253,5,0
64,208,353586,1,0
128,320,353919,1,0
248,352,354252,2,0,B|292:369|328:336,1,70
368,160,354919,6,0,B|384:184|368:240,4,70
240,192,355918,1,0
312,144,356252,1,0
240,96,356585,1,0
312,48,356918,1,0
184,48,357251,6,0,B|107:60|80:152,1,140
80,200,357751,1,0
112,256,357918,1,0
144,200,358084,1,0
280,336,358584,6,0,B|352:342|408:272,1,140
416,216,359084,1,0
352,232,359251,1,0
368,168,359417,1,0
256,104,359751,1,0
256,104,359917,1,0
136,48,360250,5,0
136,48,360334,1,0
136,48,360417,1,0
184,88,360584,1,0
128,112,360750,1,0
176,152,360917,1,0
56,192,361250,2,0,B|10:304|176:336,1,210
224,336,361916,1,0
352,336,362250,5,0
320,280,362416,1,0
384,280,362583,1,0
424,160,362916,2,0,B|432:49|288:56,1,175
314,55,363666,1,0
216,48,363916,1,0
272,112,364249,1,0
192,128,364582,1,0
144,72,364915,1,0
80,168,365582,6,0,B|36:237|112:288,1,140
168,320,366082,1,0
168,320,366248,1,0
296,344,366582,1,0
232,296,366915,1,0
296,264,367248,1,0
232,224,367581,1,0
112,168,367914,2,0,B|79:92|160:48,1,140
216,56,368414,1,0
248,112,368581,1,0
280,56,368748,1,0
400,64,369247,6,0,B|472:120|448:208,1,140
432,248,369747,1,0
368,248,369914,1,0
400,304,370080,1,0
64,72,371426,6,0,B|64:240,1,140
64,272,371926,1,0
144,272,372259,1,0
224,272,372592,2,0,B|376:272,1,140
440,272,373425,1,0
440,192,373925,5,0
440,192,374091,1,0
440,192,374258,1,0
440,104,374758,1,0
440,104,374924,1,0
440,104,375091,1,0
440,104,375258,1,0
328,40,375591,2,0,B|240:40,3,70
128,64,376424,1,0
48,160,376757,1,0
80,280,377090,2,0,B|157:361|288:312,1,210
274,316,377757,2,0,B|352:281|368:208,1,140
365,216,378256,2,0,B|400:128|352:48,1,140
312,40,378756,1,0
56,40,379422,6,0,B|152:40,3,70
232,184,380255,2,0,B|232:72,1,70
232,112,380589,2,0,B|232:28,1,70
72,32,381255,6,0,B|72:144,1,70
72,104,381588,2,0,B|72:188,1,70
72,174,381921,2,0,B|80:256|152:280,1,140
216,288,382421,1,0
216,288,382588,1,0
216,288,382921,1,0
216,288,383254,1,0
216,288,383587,1,0
136,264,383920,5,0
136,192,384254,2,0,B|136:104,2,70
136,56,384753,1,0
256,256,385253,5,0
256,184,385586,2,0,B|256:96,2,70
256,48,386086,1,0
256,48,386419,1,0
256,48,386586,1,0
152,56,386919,6,0,B|75:97,3,70
112,161,387752,2,0,B|78:199|107:245,1,70
192,264,388252,1,0
272,240,388585,1,0
352,216,388918,1,0
288,80,389418,2,0,B|328:168,12,70
408,256,391917,5,0
408,256,392250,1,0
424,176,392417,1,0
408,256,392583,1,0
424,176,392750,1,0
400,104,393041,2,0,B|387:52|304:24,1,93.3333333333333
256,24,393416,1,0
184,48,393583,1,0
112,80,393749,1,0
184,120,393916,1,0
112,152,394083,1,0
184,192,394249,1,0
112,224,394582,2,0,B|119:300|216:328,1,140
280,344,395082,1,0
360,344,395249,1,0
320,280,395415,1,0
448,224,395915,6,0,B|480:152|440:72,1,140
368,64,396415,1,0
288,64,396581,1,0
328,128,396748,1,0
288,64,397081,5,0
288,64,397248,1,0
72,168,397581,2,0,B|88:96|144:104,1,70
168,128,397914,2,0,B|168:176|128:200,1,70
72,168,398414,2,0,B|88:96|144:104,1,70
141,190,398914,2,0,B|168:176|168:128,5,70
176,272,400080,1,0
272,272,400247,1,0
224,336,400413,1,0
320,336,400580,1,0
432,120,401746,6,0,B|392:64|296:56,1,140
311,57,402279,1,0
184,56,402612,2,0,B|88:56,1,70
48,56,402946,1,0
48,120,403112,1,0
48,184,403279,2,0,B|48:288,1,70
48,320,403612,1,0
176,320,403945,6,0,B|264:320,1,70
312,320,404278,1,0
376,320,404445,1,0
440,320,404611,2,0,B|440:216,1,70,0|0
440,184,404944,1,0
440,56,405278,6,0,B|288:56,1,140
232,56,405777,1,0
168,56,405944,1,0
40,56,406277,1,0
40,120,406444,1,0
40,184,406610,2,0,B|40:264,1,70
104,256,406943,1,0
232,256,407276,5,0
360,256,407610,1,0
424,256,407776,1,0
424,192,407943,1,0
360,192,408109,2,0,B|272:192,1,70,0|0
160,192,408609,2,0,B|80:192,1,70
280,192,409275,5,0
344,192,409442,1,0
472,192,409775,1,0
472,320,410108,1,0
344,320,410441,1,0
216,320,410775,2,0,B|88:320,1,105,0|0
112,96,411607,1,0
176,96,411774,1,0
240,96,411941,1,0
400,192,412440,6,0,B|240:192,1,140
192,192,412940,1,0
192,64,413273,2,0,B|344:64,1,140
392,64,413773,1,0
456,64,413939,1,0
456,128,414106,1,0
392,128,414273,1,0
456,232,414606,6,0,B|304:232,1,140
248,232,415105,1,0
184,232,415272,1,0
120,232,415439,1,0
56,232,415605,1,0
56,104,415938,6,0,B|160:104,1,70
192,104,416271,1,0
256,104,416438,1,0
320,104,416605,1,0
448,104,416938,2,0,B|448:208,1,70
448,240,417271,1,0
320,240,417604,1,0
192,240,417937,1,0
64,240,418270,1,0
64,176,418437,1,0
128,176,418603,1,0
192,176,418770,2,0,B|332:176,1,140
392,176,419270,1,0
200,344,419936,6,0,B|308:345,1,70
392,344,420436,1,0
392,216,420769,1,0
392,88,421102,1,0
264,88,421435,1,0
72,88,421935,1,0
168,160,423101,5,0
296,160,423434,2,0,B|368:160,1,70
366,160,423767,2,0,B|456:160,1,70
436,160,424100,2,0,B|420:272|376:295|43:304,1,455
51,304,425266,2,0,B|485:304,1,420
224,256,426932,5,0
352,256,427265,2,0,B|296:184,1,70
264,144,427765,1,0
216,104,427932,2,0,B|216:16,8,70
144,88,429597,2,0,B|72:216,1,140
56,272,430097,1,0
88,328,430264,1,0
152,328,430430,2,0,B|312:328,1,140
352,328,430930,1,0
448,192,431596,5,0
448,192,431763,1,0
448,192,431929,1,0
376,80,432429,2,0,B|280:40,1,70,0|0
120,48,433095,1,0
88,104,433262,1,0
80,232,433595,1,0
152,336,433928,1,0
336,344,434428,1,0
384,232,434761,2,0,B|448:192|456:112,1,140
448,56,435261,1,0
392,88,435427,5,0
392,88,435594,1,0
392,88,435761,1,0
392,88,435927,1,0
392,88,436094,1,0
328,88,436260,1,0
328,88,436427,1,0
328,88,436593,1,0
328,88,436760,1,0
328,88,436927,1,0
328,88,437093,1,0
328,88,437260,1,0
200,88,437593,6,0,B|80:216,1,140
72,248,438093,1,0
160,336,438426,2,0,B|248:336,1,70
360,328,438926,1,0
416,304,439092,1,0
448,248,439259,1,0
456,184,439425,2,0,B|456:32,1,140
392,48,439925,1,0
264,40,440258,2,0,B|194:40,5,70
136,64,441258,1,0
64,168,441591,2,0,B|144:296,1,140
256,320,442257,5,0
320,320,442424,1,0
384,304,442590,2,0,B|424:160,1,140
392,112,443090,1,0
344,72,443256,1,0
152,40,443756,2,0,B|72:80,1,70
64,192,444256,1,0
136,296,444589,1,0
320,304,445089,2,0,B|400:264,1,70
408,216,445422,1,0
408,216,445755,1,0
408,216,445922,1,0
376,136,448087,5,0
256,88,448420,1,0
144,136,448753,1,0
56,304,449253,2,0,B|176:312,1,70
192,312,449586,1,0
240,272,449753,1,0
288,312,449919,1,0
336,272,450086,1,0
456,48,450752,5,0
416,96,450919,1,0
352,96,451085,1,0
296,64,451252,1,0
240,32,451419,2,0,B|152:32,1,70
64,104,451918,5,0
72,168,452085,1,0
80,232,452251,1,0
96,296,452418,2,0,B|208:296,1,70
232,296,452751,1,0
360,296,453084,2,0,B|456:296,1,70
456,240,453417,1,0
408,120,453751,1,0
320,208,454084,1,0
128,208,454583,6,0,B|72:72,1,140
136,56,455083,1,0
200,64,455250,1,0
264,72,455416,1,0
456,232,456083,6,0,B|312:360,1,140
224,328,456749,1,0
96,312,457082,1,0
56,192,457415,1,0
104,72,457748,1,0
168,72,457915,1,0
296,72,458248,1,0
424,72,458581,2,0,B|424:200|392:280|288:328,1,280
104,144,461080,5,0
168,144,461246,1,0
232,144,461413,2,0,B|312:144,1,70
472,232,462079,2,0,B|472:328,1,70
280,312,462746,2,0,B|168:312,1,70
208,248,463079,5,0
272,248,463245,1,0
272,184,463412,2,0,B|272:104,1,70
208,112,463745,1,0
208,112,463912,1,0
120,120,464141,5,0
120,120,464266,1,0
120,120,464433,1,0
168,64,464766,2,0,B|238:17|320:72,1,140
300,60,465266,1,0
352,96,465433,2,0,B|419:146|448:237|376:304,1,210
397,279,466100,1,0
288,344,466433,2,0,B|184:344,1,70
216,280,466766,5,0
104,224,467100,5,0
176,120,467433,5,0
280,184,467767,5,0
400,168,468100,6,0,B|391:46|271:19|160:58|176:208,1,385
56,304,469433,5,0
56,304,469767,1,0
56,304,470100,1,0
184,304,470434,2,0,B|184:200,2,70
312,304,471100,2,0,B|384:304,1,70
382,304,471434,1,0
456,200,471767,6,0,B|410:148,1,70
472,136,472100,2,0,B|472:64,4,70
472,66,473101,1,0
408,64,473267,2,0,B|344:32|280:96|192:32,1,210
203,40,473934,1,0
203,40,474101,1,0
352,240,474767,5,0
352,240,474934,1,0
352,240,475101,1,0
424,200,475434,2,0,B|475:136|408:72,1,140,0|0
352,48,475934,1,0
288,40,476101,2,0,B|157:24|63:72|40:176,1,280
56,272,477101,2,0,B|80:312|136:328,1,70
168,320,477434,1,0
296,304,477768,1,0
408,248,478101,1,0
424,120,478434,1,0
296,96,478768,2,0,B|227:21|112:12|48:168,1,280
66,130,479768,1,0
344,176,480101,6,0,B|272:176,1,70
208,176,480435,2,0,B|136:176,1,70
72,200,480935,2,0,B|56:144|104:104,1,70
120,72,481435,1,0
79,132,481768,2,0,B|64:168|73:210,1,70
88,264,482102,1,0
144,312,482435,2,0,B|188:345|232:335,1,70
272,344,482768,1,0
352,320,483102,2,0,B|389:319|412:282,1,70
424,224,483435,1,0
408,96,483768,5,0
352,64,483935,1,0
288,48,484102,2,0,B|216:10|144:64,1,140
104,104,484768,1,0
80,160,484935,1,0
96,216,485102,1,0
96,216,485269,1,0
184,128,485435,5,0
184,256,485769,1,0
320,128,486269,1,0
320,128,486602,1,0
184,192,486769,2,0,B|256:192,2,70
184,192,487435,1,0
424,80,488144,5,0
432,152,488436,1,0
432,224,488769,2,0,B|408:296,1,70
344,272,489269,2,0,B|256:288,1,70
264,224,489602,1,0
200,216,489769,1,0
136,208,489936,1,0
184,296,490102,5,0
312,296,490436,1,0
184,88,490769,5,0
312,88,491103,1,0
184,224,491603,1,0
248,88,491936,2,0,B|248:168,3,70
248,224,492769,1,0
40,72,493436,5,0
152,72,493769,1,0
256,72,494103,2,0,B|328:72,1,70
448,72,494603,2,0,B|448:152,1,70
384,144,494936,1,0
320,144,495103,1,0
256,144,495270,1,0
192,144,495436,5,0
192,272,495770,1,0
328,144,496103,5,0
328,272,496436,1,0
256,144,496770,1,0
256,272,497103,1,0
184,136,497437,2,0,B|184:280,1,140
184,276,498103,1,0
184,208,498270,1,0
184,136,498437,1,0
80,72,498770,5,0
208,72,499103,1,0
80,144,499437,1,0
208,144,499770,1,0
80,216,500104,1,0
144,216,500270,1,0
208,216,500437,1,0
272,216,500604,1,0
336,216,500770,1,0
464,216,501104,1,0
352,272,501437,5,0
224,272,501770,1,0
352,200,502104,1,0
224,200,502437,1,0
216,128,502770,2,0,B|360:128,1,140
216,128,503437,1,0
280,128,503604,1,0
344,128,503771,1,0
128,176,528950,5,0
128,112,529116,1,0
128,48,529283,1,0
192,48,529450,2,0,B|344:48,1,140
392,48,529950,2,0,B|392:144,1,70
392,184,530283,2,0,B|320:184,1,70
256,184,530616,1,0
192,184,530783,1,0
192,184,531117,1,0
192,184,531284,1,0
192,184,531450,1,0
392,352,532117,6,0,B|392:208,1,140
392,212,532617,1,0
328,208,532784,2,0,B|328:312|233:318,1,140
257,314,533284,1,0
216,264,533451,1,0
216,168,533701,1,0
216,264,533951,1,0
168,48,534784,6,0,B|104:40|48:128,3,140
56,176,535951,1,0
56,176,536034,1,0
56,176,536118,1,0
152,176,536368,1,0
248,176,536618,1,0
312,176,536784,1,0
248,176,536951,1,0
184,176,537118,1,0
184,112,537284,2,0,B|408:72,1,210
48,344,548127,5,0
48,216,548460,1,0
80,96,548793,1,0
192,48,549126,1,0
320,40,549459,1,0
440,72,549792,1,0
456,160,550459,2,0,B|496:200|440:296,1,140
384,104,551291,1,0
288,192,551625,1,0
408,216,551958,1,0
360,168,552124,1,0
312,120,552457,1,0
64,64,553124,6,0,B|216:64,1,140
328,64,553790,1,0
432,136,554123,1,0
472,256,554456,1,0
376,336,554789,2,0,B|352:363|189:363|80:288,1,280,0|0
80,248,555622,1,0
64,184,555789,1,0
48,120,555955,1,0
32,56,556122,2,0,B|96:40|168:88,1,140
368,48,556955,2,0,B|432:0|480:104,1,140
440,152,557455,1,0
440,152,557788,1,0
472,272,558121,1,0
368,344,558454,1,0
240,344,558787,6,0,B|168:345|208:240,1,105
208,112,559454,1,0
208,240,559787,1,0
208,112,560120,2,0,B|320:24|440:88,1,245
464,160,561119,1,0
456,232,561452,2,0,B|457:377|296:344,1,210
352,288,562119,1,0
352,288,562452,1,0
360,216,562785,2,0,B|360:168,8,35
48,136,564118,6,0,B|23:301|200:352,1,280
185,347,565117,1,0
248,240,565450,2,0,B|328:112,1,140
322,121,566117,1,0
432,56,566450,1,0
448,176,566783,1,0
320,200,567116,1,0
272,152,567283,1,0
224,104,567449,1,0
136,192,567782,1,0
48,192,568115,2,0,B|40:44|184:32,1,210
154,36,568782,1,0
40,48,569444,5,0
80,96,569611,1,0
120,48,569777,1,0
160,96,569944,1,0
200,48,570110,2,0,B|280:48,1,70
392,48,570610,1,0
368,104,570777,1,0
328,48,570943,1,0
328,48,571110,2,0,B|376:112,1,70
432,112,571443,2,0,B|432:192,1,70
432,248,571776,5,0
464,304,571943,1,0
400,304,572109,2,0,B|296:304,1,70
328,240,572442,2,0,B|232:240,1,70
248,304,572776,1,0
200,256,572942,1,0
184,320,573109,1,0
136,272,573275,1,0
120,336,573442,2,0,B|48:328|24:240|48:160,1,210
72,112,574108,1,0
472,40,574774,5,0
408,40,574941,1,0
440,96,575108,1,0
376,96,575274,1,0
344,40,575441,2,0,B|256:40,1,70
144,40,575940,1,0
80,40,576107,1,0
80,168,576440,2,0,B|80:320,1,140
192,192,577106,1,0
320,192,577440,1,0
448,192,577773,1,0
448,64,578106,1,0
256,32,578606,6,0,B|184:72,1,70
144,104,578939,1,0
176,160,579105,1,0
208,216,579272,1,0
248,264,579439,2,0,B|312:232,1,70
368,208,579772,1,0
48,296,585435,5,0
80,352,585602,1,0
112,296,585768,1,0
144,352,585935,1,0
176,296,586101,2,0,B|246:296,1,70,0|0
360,352,586601,1,0
360,288,586768,1,0
360,288,586934,1,0
360,224,587101,2,0,B|360:72,1,140
296,192,587767,1,0
168,192,588100,1,0
40,192,588434,1,0
40,64,588767,1,0
224,56,589266,6,0,B|280:104,1,70
328,144,589600,1,0
288,192,589766,1,0
248,240,589933,1,0
208,288,590099,1,0
272,104,590599,6,0,B|208:48,1,70,0|0
176,104,590932,1,0
136,152,591099,1,0
96,200,591265,1,0
56,248,591432,1,0
232,192,591932,5,0
360,192,592265,1,0
360,128,592431,1,0
296,128,592598,1,0
232,128,592764,2,0,B|190:230|304:192,1,140
80,80,593764,5,0
208,80,594097,1,0
336,80,594430,1,0
464,80,594763,2,0,B|464:160|464:152,1,70
336,152,595263,2,0,B|424:152,1,70
280,152,595763,1,0
216,152,595929,1,0
88,152,596263,6,0,B|88:48,1,70
152,96,596596,2,0,B|152:24,1,70
152,26,596929,1,0
256,64,597095,1,0
256,64,597262,1,0
256,128,597429,5,0
144,192,597762,5,0
272,192,598095,5,0
432,192,598511,5,0
