osu file format v7

[General]
AudioFilename: Song.mp3
AudioLeadIn: 2500
PreviewTime: 45374
Countdown: 0
SampleSet: Soft
StackLeniency: 0.4
Mode: 0
LetterboxInBreaks: 0

[Editor]
DistanceSpacing: 0.800000011920929
BeatDivisor: 4
GridSize: 8

[Metadata]
Title:Jaka Jaka Song
Artist:NicoNicoDouga
Creator:Mafiamaster
Version:Insane
Source:
Tags:K-ON!! Lena Krisom

[Difficulty]
HPDrainRate:7
CircleSize:5
OverallDifficulty:8
SliderMultiplier:2.4
SliderTickRate:1

[Events]
//Background and Video events
0,0,"Oo hoo hoo hoo hoo.jpg"
Video,0,"Jaka-Jaka Song.avi"
//Break Periods
2,21330,23713
2,36142,38524
//Storyboard Layer 0 (Background)
//Storyboard Layer 1 (Fail)
//Storyboard Layer 2 (Pass)
//Storyboard Layer 3 (Foreground)
//Storyboard Sound Samples
//Background Colour Transformations
3,100,0,0,0

[TimingPoints]
25,370.278943470748,4,2,0,100,1,0
16955,-200,4,2,0,100,0,0
18436,-100,4,2,0,100,0,0
43430,-200,4,2,0,100,0,0
43893,-100,4,1,0,40,0,0
45096,-100,4,2,0,100,0,0
49215,-100,4,2,0,50,0,0
50743,-100,4,2,0,100,0,0
58704,-200,4,2,0,100,0,0
59907,-100,4,2,0,100,0,0
68748,-100,4,2,0,50,0,0
71293,-100,4,2,0,100,0,0

[HitObjects]
256,136,210,2,0,B|256:208,2,60
256,40,580,1,0
176,168,765,5,4
160,168,858,1,0
144,168,950,1,0
128,176,1043,1,0
112,184,1135,1,8
104,200,1228,1,0
104,216,1320,1,0
112,232,1413,1,0
128,240,1506,1,0
144,248,1598,1,0
160,248,1691,1,0
176,248,1783,1,0
192,248,1876,5,8
208,240,1968,1,0
224,248,2061,1,0
240,256,2154,1,0
256,248,2246,1,0
272,240,2339,1,0
288,248,2431,1,0
304,256,2524,1,0
320,248,2616,1,8
336,248,2709,5,0
352,248,2802,1,0
368,248,2894,1,0
384,256,2987,1,0
400,264,3079,1,0
408,280,3172,1,0
408,296,3264,1,0
400,312,3357,1,8
384,320,3450,1,0
368,328,3542,1,0
352,328,3635,1,0
336,328,3727,5,0
256,384,3912,1,0
256,368,4005,1,0
256,352,4098,1,8
256,336,4190,1,0
256,320,4283,1,0
184,384,4468,1,0
168,384,4560,1,0
152,384,4653,1,0
136,384,4746,1,0
120,384,4838,1,8
24,384,5023,5,0
72,304,5208,1,0
24,224,5394,1,0
24,208,5486,1,0
24,192,5579,1,8
24,96,5764,1,0
104,48,5949,5,0
120,56,6042,1,0
136,64,6134,1,0
144,80,6227,1,0
160,96,6319,1,8
176,80,6412,1,0
184,64,6504,1,0
200,56,6597,1,0
216,48,6690,5,4
296,96,6875,1,0
312,88,6967,1,0
328,80,7060,1,8
344,88,7152,1,0
360,96,7245,1,0
328,184,7430,1,0
328,200,7523,1,0
328,216,7615,2,0,B|328:304,3,60,0|0|8|0
328,296,7985,1,0
416,304,8171,5,0
432,296,8263,1,0
448,288,8356,1,0
456,272,8448,1,0
464,256,8541,1,8
472,240,8633,1,0
464,224,8726,1,0
472,208,8819,1,0
472,192,8911,5,0
464,176,9004,1,0
472,160,9096,1,0
472,144,9189,1,0
464,128,9281,1,8
456,112,9374,1,0
448,96,9467,1,0
432,88,9559,1,0
416,80,9652,5,0
328,120,9837,1,0
312,120,9929,1,0
296,120,10022,1,8
280,120,10115,1,0
264,128,10207,1,0
248,136,10300,1,0
232,136,10392,1,0
216,136,10485,1,0
200,136,10577,1,0
104,136,10763,6,0,B|104:72,2,60,8|0|0
104,152,11040,1,0
104,168,11133,1,0
104,264,11318,1,0
192,312,11503,1,8
208,320,11596,1,0
224,328,11688,1,0
240,320,11781,1,0
256,312,11873,1,0
352,312,12059,2,0,B|408:336|408:336|464:312,2,120,0|8|0
408,232,12614,5,4
352,312,12799,1,0
296,232,12984,1,8
352,152,13169,1,0
296,72,13355,1,0
200,64,13540,1,0
200,64,13632,1,0
200,64,13725,1,8
104,72,13910,1,0
296,72,14095,5,0
248,160,14280,1,0
152,160,14465,1,8
104,248,14651,1,0
104,248,14836,1,0
200,272,15021,1,0
200,272,15113,1,0
200,272,15206,1,8
296,248,15391,1,0
296,72,15576,5,0
392,64,15761,1,0
488,40,15946,1,8
480,136,16132,1,0
504,232,16317,1,0
496,328,16502,2,0,B|432:328,2,60,0|0|8
400,328,16872,1,0
312,288,17057,6,0,B|272:336,1,60,2|0
80,336,17428,2,0,B|40:288,1,60,2|0
48,96,17798,2,0,B|88:48,1,60,2|0
280,48,18168,2,0,B|320:96,1,60,2|0
176,200,18538,5,4
176,296,18724,1,0
80,200,18909,1,8
176,104,19094,1,0
272,200,19279,1,0
256,296,19464,1,0
256,296,19557,1,0
256,296,19649,1,8
256,296,19834,1,0
336,200,20020,5,0
336,104,20205,1,0
432,200,20390,1,8
336,296,20575,1,0
240,200,20760,1,0
336,104,20945,1,0
336,104,21038,1,0
336,104,21130,1,2
128,24,24463,5,4
64,96,24648,1,0
80,192,24833,1,8
64,288,25018,1,0
0,360,25203,1,0
0,360,25574,1,8
256,248,25944,2,0,B|256:384,2,120,0|0|8
256,56,26685,5,0
256,56,26870,1,0
256,56,27055,1,8
384,360,27425,5,0
448,288,27610,1,0
432,192,27795,1,8
448,96,27981,1,0
512,24,28166,1,0
512,24,28536,1,8
256,136,28906,2,0,B|256:0,2,120,0|0|8
256,328,29647,5,0
256,328,29832,1,0
256,328,30017,1,8
144,24,30387,5,4
80,96,30573,1,0
56,192,30758,1,8
80,288,30943,1,0
144,360,31128,1,0
144,360,31498,1,8
256,80,31868,5,0
256,80,32054,1,0
256,80,32239,1,8
256,272,32609,5,0
256,272,32794,1,0
256,272,32979,1,8
368,360,33350,5,0
432,288,33535,1,0
456,192,33720,1,8
432,96,33905,1,0
368,24,34090,1,0
368,24,34460,1,8
256,304,34831,5,0
256,304,35016,1,0
256,304,35201,1,8
256,112,35571,5,0
256,112,35756,1,0
256,112,35942,1,2
0,192,39274,6,0,L|24:208|48:192|72:208|96:192|120:208|144:192|168:208|208:192,1,240,4|2
96,96,39829,1,0
0,272,40015,2,0,L|24:288|48:272|72:288|96:272|120:288|144:272|168:288|208:272,1,240,0|2
96,96,40570,1,0
0,352,40755,2,0,L|24:368|48:352|72:368|96:352|120:368|144:352|168:368|208:352,1,240,2|2
203,353,41311,2,0,L|227:369|251:353|275:369|299:353|323:369|347:353|371:369|411:353,1,240,2|0
406,354,41866,1,4
512,192,42236,6,0,L|488:208|464:192|440:208|416:192|392:208|368:192|344:208|304:192,1,240,0|2
416,96,42792,1,0
512,272,42977,2,0,L|488:288|464:272|440:288|416:272|392:288|368:272|344:288|304:272,1,240,2|0
309,274,43532,2,0,L|293:282|277:274|261:282|245:274|229:282|197:266,1,120,2|8
120,216,44088,5,0
256,360,44273,1,0
160,232,44458,1,0
240,320,44643,1,0
200,248,44828,1,0
224,280,45013,1,0
336,216,45199,5,4
352,216,45291,1,0
368,216,45384,1,0
384,208,45476,1,0
400,200,45569,1,8
408,184,45661,1,0
408,168,45754,1,0
400,152,45847,1,0
384,144,45939,1,0
368,136,46032,1,0
352,136,46124,1,0
336,136,46217,1,0
320,136,46309,5,8
304,144,46402,1,0
288,136,46495,1,0
272,128,46587,1,0
256,136,46680,1,0
240,144,46772,1,0
224,136,46865,1,0
208,128,46957,1,0
192,136,47050,1,8
176,136,47142,5,0
160,136,47235,1,0
144,136,47328,1,0
128,128,47420,1,0
112,120,47513,1,0
104,104,47605,1,0
104,88,47698,1,0
112,72,47790,1,8
128,64,47883,1,0
144,56,47976,1,0
160,56,48068,1,0
176,56,48161,5,2
256,8,48346,1,2
336,56,48531,1,8
416,8,48716,1,2
472,88,48901,1,0
472,104,48994,1,0
472,120,49086,1,0
472,136,49179,1,0
472,152,49272,6,2,L|472:184,9,30
472,192,49734,2,2,L|472:224,21,30
472,232,50753,6,0,L|472:304,3,60
472,312,51123,1,2
400,376,51308,1,0
304,376,51493,1,2
232,312,51678,1,2
160,376,51864,1,2
64,376,52049,1,0
48,376,52141,1,0
32,376,52234,1,8
112,288,52419,1,0
64,208,52604,5,0
160,208,52789,1,0
112,128,52974,1,8
112,112,53067,1,0
112,96,53160,1,0
112,80,53252,1,0
112,64,53345,1,0
200,96,53530,1,0
248,176,53715,1,8
248,176,53900,1,0
296,96,54085,5,0
312,96,54178,1,0
328,96,54270,1,0
344,96,54363,1,0
360,96,54456,1,8
376,96,54548,1,0
392,104,54641,1,0
400,120,54733,1,0
400,136,54826,5,0
400,152,54918,1,0
400,168,55011,1,0
400,184,55103,1,0
400,200,55196,1,8
408,216,55289,1,0
424,224,55381,1,0
440,224,55474,1,0
256,96,55751,5,0
256,192,55937,1,8
256,288,56122,1,0
352,312,56307,2,0,B|304:368|256:384|256:384|208:368|160:312,1,240,0|8
256,288,56862,1,0
184,224,57047,5,4
256,96,57233,1,0
328,224,57418,1,8
176,136,57603,1,0
336,136,57788,1,0
256,192,57973,2,0,B|256:320,2,120,0|8|0
256,96,58529,1,0
344,312,58899,6,0,B|408:312,1,60,8|0
376,224,59269,2,0,B|440:184,1,60
368,120,59639,2,0,B|392:48,1,60,8|0
256,40,60010,5,2
160,24,60195,1,0
64,40,60380,1,2
48,136,60565,1,0
64,232,60750,1,2
64,232,60843,1,2
160,248,61028,1,2
160,248,61121,1,2
256,232,61306,1,2
272,136,61491,1,2
256,40,61676,5,2
64,40,62046,1,2
160,136,62417,1,2
160,136,62509,1,2
160,136,62602,1,2
160,136,62787,1,2
112,216,62972,5,2
112,216,63064,1,2
208,216,63250,1,2
208,216,63342,1,2
160,296,63527,1,2
160,296,63620,1,2
256,296,63805,1,2
256,296,63898,1,2
256,296,63990,1,2
256,296,64083,1,2
304,216,64268,1,2
216,64,64453,5,2
208,80,64546,1,2
200,96,64638,1,2
200,112,64731,1,2
200,128,64823,1,2
208,144,64916,1,2
224,152,65008,1,2
240,160,65101,1,2
256,160,65194,1,2
272,160,65286,5,2
288,152,65379,1,2
304,144,65471,1,2
312,128,65564,1,2
312,112,65656,1,2
312,96,65749,1,2
304,80,65842,1,2
296,64,65934,5,2
288,48,66027,1,2
384,40,66212,1,2
392,56,66304,1,2
488,40,66490,1,2
480,56,66582,1,2
472,72,66675,1,2
464,88,66767,1,2
456,104,66860,1,2
456,120,66952,1,2
448,136,67045,1,2
440,152,67138,1,2
432,168,67230,1,2
424,184,67323,1,2
416,200,67415,5,2
368,280,67600,1,2
416,360,67786,1,2
464,280,67971,1,2
480,280,68063,1,2
416,360,68248,1,2
368,280,68434,1,2
352,280,68526,1,2
336,280,68619,1,2
256,48,68896,6,2,B|256:80,11,30
256,88,69452,2,2,B|256:120,11,30
256,128,70007,2,2,B|256:168,7,30
256,168,70377,6,2,B|256:200,11,30
256,208,70933,2,2,B|256:248,7,30
256,248,71303,6,0,B|256:312,2,60,2|0|2
256,344,71673,1,2
160,368,71859,5,4
144,376,71951,1,0
128,384,72044,1,0
112,376,72136,1,0
96,368,72229,1,8
128,280,72414,2,0,B|0:280,1,120
96,192,72784,1,0
112,184,72877,1,0
128,176,72969,1,8
144,184,73062,1,0
160,192,73155,1,0
256,216,73340,6,0,B|256:144,4,60,0|0|0|0|8
256,312,73895,1,0
336,360,74080,1,0
336,360,74173,1,0
416,312,74358,1,0
416,296,74451,1,8
416,280,74543,1,0
416,264,74636,1,0
496,312,74821,1,0
496,296,74913,1,0
496,280,75006,1,0
496,264,75099,1,0
496,248,75191,1,8
496,152,75376,5,0
456,64,75561,1,0
416,152,75747,1,0
400,152,75839,1,0
384,152,75932,1,8
344,240,76117,1,0
304,152,76302,1,0
288,152,76395,1,0
272,152,76487,1,0
256,152,76580,1,0
240,152,76672,1,8
200,64,76857,5,0
160,152,77043,1,0
200,240,77228,2,0,B|200:304,1,60
232,240,77413,2,0,B|232:304,1,60,8|0
264,240,77598,2,0,B|264:304,1,60
296,240,77783,5,4
392,240,77968,1,0
344,328,78153,2,0,B|456:392,1,120,8|0
344,328,78524,2,0,B|456:264,1,120
504,192,78894,1,8
504,176,78986,1,0
496,160,79079,1,0
480,152,79172,1,0
464,152,79264,5,0
448,160,79357,1,0
440,176,79449,1,0
440,192,79542,1,0
432,208,79634,1,8
344,248,79820,1,0
256,208,80005,1,0
168,248,80190,1,0
40,120,80375,5,8
80,208,80560,1,0
168,248,80745,6,0,B|168:112,1,120
168,32,81116,1,8
184,32,81208,1,0
200,40,81301,1,0
216,48,81393,1,0
232,48,81486,1,0
328,48,81671,5,0
344,48,81764,1,0
360,56,81856,1,8
368,72,81949,1,0
376,88,82041,1,0
392,96,82134,1,0
408,96,82226,1,0
496,48,82412,5,0
408,96,82597,1,8
496,144,82782,1,0
496,240,82967,2,0,B|496:304,7,60,0|0|0|0|8|0|0|0
496,320,83708,5,4
416,376,83893,1,0
336,320,84078,1,8
336,304,84170,1,0
336,288,84263,1,0
416,232,84448,1,0
416,136,84633,1,0
336,192,84818,5,8
328,208,84911,1,0
312,216,85004,1,0
296,208,85096,1,0
288,192,85189,5,0
256,104,85374,1,0
224,192,85559,1,8
136,360,85929,1,0
64,296,86114,1,0
136,232,86299,1,4
376,360,86670,5,0
472,360,86855,1,0
496,264,87040,1,8
472,168,87225,1,0
376,160,87410,1,0
376,160,87781,1,8
208,72,88151,1,0
112,96,88336,1,0
88,192,88521,1,8
256,240,88891,6,0,B|256:376,2,120,0|0|8
336,296,89447,1,2
176,296,89632,1,4
