osu file format v13

[General]
AudioFilename: I Wanna Disassemble Frenda.mp3
AudioLeadIn: 0
PreviewTime: 83249
Countdown: 1
SampleSet: Normal
StackLeniency: 0.7
Mode: 0
LetterboxInBreaks: 1
EpilepsyWarning: 1
WidescreenStoryboard: 1

[Editor]
Bookmarks: 25067,39612,54158,68703,83249
DistanceSpacing: 1.1
BeatDivisor: 4
GridSize: 4
TimelineZoom: 1.5

[Metadata]
Title:I Wanna Disassemble Frenda
TitleUnicode:I Wanna Disassemble Frenda
Artist:NicoNicoDouga
ArtistUnicode:NicoNicoDouga
Creator:Chamle
Version:Normal
Source:To Aru Kagaku no Railgun S
Tags:sisters seivelun
BeatmapID:470644
BeatmapSetID:198375

[Difficulty]
HPDrainRate:3
CircleSize:3.5
OverallDifficulty:4
ApproachRate:4
SliderMultiplier:1.4
SliderTickRate:1

[Events]
//Background and Video events
Video,0,"VidFrenda.avi"
0,0,"bg.jpg",0,0
//Break Periods
2,76176,81929
//Storyboard Layer 0 (Background)
//Storyboard Layer 1 (Fail)
//Storyboard Layer 2 (Pass)
//Storyboard Layer 3 (Foreground)
//Storyboard Sound Samples
//Background Colour Transformations
3,100,163,162,255

[TimingPoints]
6885,454.545454545455,4,1,1,70,1,0
28703,-100,4,1,2,70,0,0
75976,-100,4,1,0,30,0,0
83249,-100,4,1,1,70,0,1
97794,-100,4,2,0,30,0,0

[Colours]
Combo1 : 255,128,0
Combo2 : 255,255,255
Combo3 : 116,116,252
Combo4 : 252,97,97

[HitObjects]
72,32,10521,5,0,0:0:0:0:
32,136,10976,1,8,0:0:0:0:
92,232,11431,2,0,P|152:200|212:232,1,140,0|8,0:0|0:0,0:0:0:0:
268,328,12340,5,0,0:0:0:0:
380,328,12794,1,8,0:0:0:0:
448,240,13249,2,0,L|448:136,2,105,0|0|8,2:0|2:0|1:0,0:0:0:0:
412,284,14158,5,0,0:0:0:0:
300,284,14612,1,8,0:0:0:0:
208,224,15067,2,0,P|176:164|208:104,1,140,0|8,0:0|0:0,0:0:0:0:
296,36,15976,5,0,0:0:0:0:
408,36,16431,1,8,0:0:0:0:
452,140,16885,2,0,L|344:140,2,105,0|0|8,2:0|2:0|0:0,0:0:0:0:
436,192,17794,6,0,L|376:320,1,140,0|8,0:0|0:0,0:0:0:0:
264,336,18703,2,0,L|324:208,1,140,0|8,0:0|0:0,0:0:0:0:
240,136,19612,6,0,L|180:264,1,140,0|8,0:0|0:0,0:0:0:0:
72,244,20521,2,0,P|64:296|72:352,2,105,0|0|8,2:0|2:0|0:0,0:0:0:0:
96,192,21431,6,0,P|152:160|164:88,1,140,0|8,0:0|0:0,0:0:0:0:
236,8,22340,2,0,P|303:18|337:76,1,140,0|8,0:0|0:0,0:0:0:0:
336,188,23249,6,0,P|356:264|404:296,2,140,0|8|0,0:0|0:0|2:0,0:0:0:0:
260,152,24499,2,0,L|152:128,1,105,0|8,2:0|0:0,0:0:0:0:
157,129,25067,5,0,0:0:0:0:
76,204,25522,2,0,L|120:300,1,105,8|2,0:0|0:0,0:0:0:0:
256,260,26431,1,8,0:0:0:0:
355,129,26885,5,0,0:0:0:0:
436,204,27340,2,0,L|392:300,1,105,8|2,0:0|0:0,0:0:0:0:
332,360,28022,2,0,P|272:328|196:332,1,140,0|8,0:0|0:0,0:0:0:0:
148,348,28703,6,0,P|40:328|52:208,1,245,0|2,0:0|0:0,0:0:0:0:
104,276,29840,2,0,P|128:192|80:136,1,140,2|2,0:0|0:0,0:0:0:0:
60,108,30522,6,0,P|112:40|264:56,1,245,0|2,0:0|0:0,0:0:0:0:
312,116,31658,2,8,L|452:116,1,140
488,160,32340,6,0,P|508:236|480:296,1,140,0|8,0:0|0:0,0:0:0:0:
412,336,33135,1,2,0:0:0:0:
368,264,33476,2,8,L|228:264,1,140,2|2,0:0|0:0,0:0:0:0:
172,264,34158,6,0,P|152:188|180:128,1,140,0|8,0:0|0:0,0:0:0:0:
228,68,34953,1,2,0:0:0:0:
312,68,35294,2,8,L|452:68,1,140
492,108,35976,6,0,L|492:180,1,70
464,228,36431,2,0,P|400:252|360:244,1,105,8|2,0:0|0:0,0:0:0:0:
292,204,37112,2,0,L|292:132,1,70,0|2,0:0|0:0,0:0:0:0:
260,88,37566,1,0,0:0:0:0:
212,56,37794,6,0,L|136:56,1,70
92,80,38249,2,0,P|60:136|56:184,1,105,8|2,0:0|0:0,0:0:0:0:
72,260,38931,2,0,P|76:300|60:332,2,70,2|0|2,0:0|0:0|0:0,0:0:0:0:
116,224,39612,6,0,P|192:220|236:260,1,140,0|8,0:0|0:0,0:0:0:0:
296,320,40408,1,0,0:0:0:0:
348,296,40635,2,0,P|368:264|372:184,1,105,2|8,0:0|0:0,0:0:0:0:
352,148,41203,1,2,0:0:0:0:
332,96,41431,6,0,P|347:40|424:27,2,140,0|8|2,0:0|0:0|0:0,0:0:0:0:
400,160,42794,2,0,P|408:200|400:240,1,70,8|2,0:0|0:0,0:0:0:0:
388,284,43249,6,0,P|316:268|244:296,1,140,0|8,0:0|0:0,0:0:0:0:
212,328,43930,1,2,0:0:0:0:
156,316,44157,2,0,P|135:249|151:182,1,140,0|8,0:0|0:0,0:0:0:0:
264,168,45067,6,0,P|284:100|256:40,1,140,0|8,0:0|0:0,0:0:0:0:
172,40,45862,2,0,L|96:40,2,70,0|2|2,0:0|0:0|0:0,0:0:0:0:
164,96,46544,2,0,L|164:136,1,35,0|8,0:0|0:0,0:0:0:0:
140,184,46885,6,0,L|156:328,1,140,0|8,0:0|0:0,0:0:0:0:
228,364,47681,1,0,0:0:0:0:
256,316,47908,2,0,P|300:300|356:316,1,105,2|8,0:0|0:0,0:0:0:0:
448,256,48703,6,0,P|456:188|444:116,1,140,0|8,0:0|0:0,0:0:0:0:
396,48,49499,1,0,0:0:0:0:
340,64,49726,2,0,L|268:64,1,70,2|0,0:0|0:0,0:0:0:0:
212,64,50181,2,0,L|168:64,1,35,0|8,0:0|0:0,0:0:0:0:
132,100,50522,6,0,P|100:160|32:200,1,140,0|8,0:0|0:0,0:0:0:0:
24,280,51317,1,0,0:0:0:0:
56,328,51544,2,0,P|120:352|172:336,1,105,2|8,0:0|0:0,0:0:0:0:
204,320,52112,2,0,P|236:316|272:332,1,70
380,360,52794,6,0,P|412:312|412:264,1,105,8|0,0:0|0:0,0:0:0:0:
404,212,53362,1,0,0:0:0:0:
360,176,53590,2,0,L|352:140,3,35,0|0|0|8,0:0|0:0|0:0|0:0,0:0:0:0:
256,192,54158,12,2,55522,0:0:0:0:
192,80,55976,6,0,P|220:56|256:56,1,70
308,84,56431,2,0,P|360:128|428:124,2,140,8|0|8,0:0|0:0|0:0,0:0:0:0:
148,140,57794,2,0,P|192:88|188:20,2,140,0|8|0,0:0|0:0|0:0,0:0:0:0:
204,300,59158,2,0,P|152:256|84:260,2,140,8|0|8,0:0|0:0|0:0,0:0:0:0:
364,244,60522,1,0,0:0:0:0:
364,244,60976,2,0,L|352:276,3,35,0|0|8|0,0:0|0:0|0:0|0:0,0:0:0:0:
340,308,61431,6,0,P|280:360|216:348,1,140,0|8,0:0|0:0,0:0:0:0:
176,312,62112,2,0,L|108:292,2,70,0|0|2,0:0|0:0|0:0,0:0:0:0:
184,248,62794,2,0,P|176:212|152:192,1,70,8|2,0:0|0:0,0:0:0:0:
100,156,63249,6,0,P|73:133|67:99,1,70,2|0,0:0|0:0,0:0:0:0:
84,40,63703,1,8,0:0:0:0:
208,12,64158,2,0,L|280:20,1,70,0|2,0:0|0:0,0:0:0:0:
332,52,64612,1,8,0:0:0:0:
364,160,65067,6,0,P|384:240|432:268,1,140,0|8,0:0|0:0,0:0:0:0:
488,288,65749,2,0,P|488:336|480:368,1,70
420,364,66203,2,0,L|348:360,1,70,2|8,0:0|0:0,0:0:0:0:
240,360,66885,6,0,P|168:356|128:292,1,140,0|8,0:0|0:0,0:0:0:0:
48,232,67794,2,0,P|52:188|64:160,1,70,2|0,0:0|0:0,0:0:0:0:
88,116,68249,2,0,L|120:104,3,35,0|0|8|0,0:0|0:0|0:0|0:0,0:0:0:0:
148,100,68703,6,0,P|216:112|276:76,1,140,0|8,0:0|0:0,0:0:0:0:
320,36,69385,2,0,P|356:28|392:36,1,70
436,76,69840,2,0,P|424:116|436:152,1,70,0|8,0:0|0:0,0:0:0:0:
488,256,70522,6,0,P|500:288|488:320,1,70
432,348,70976,2,0,L|360:348,1,70,8|0,0:0|0:0,0:0:0:0:
304,324,71431,2,0,P|291:291|303:259,2,70,0|0|8,0:0|0:0|0:0,0:0:0:0:
192,48,72340,6,0,P|128:48|76:100,1,140,0|8,0:0|0:0,0:0:0:0:
88,160,73022,2,0,P|116:184|120:216,1,70
108,272,73476,2,0,P|113:305|140:327,1,70,0|8,0:0|0:0,0:0:0:0:
260,352,74158,6,0,P|328:360|388:324,2,140,0|8|0,0:0|0:0|0:0,0:0:0:0:
204,324,75294,2,0,P|192:296|200:256,1,70,0|8,0:0|0:0,0:0:0:0:
232,204,75749,1,0,0:0:0:0:
276,160,75976,5,4,0:0:0:0:
80,24,83249,6,0,P|72:100|96:164,1,140,0|8,0:0|0:0,0:0:0:0:
228,232,84158,1,0,0:0:0:0:
260,300,84385,2,0,P|276:332|272:372,2,70,0|8|0,0:0|0:0|0:0,0:0:0:0:
228,232,85067,6,0,P|284:176|356:148,1,140,0|8,0:0|0:0,0:0:0:0:
408,188,85748,1,0,0:0:0:0:
480,156,85976,2,0,L|452:48,1,105
376,56,86544,2,0,L|336:60,1,35,0|8,0:0|0:0,0:0:0:0:
304,128,86885,6,0,P|268:132|236:116,1,70
200,52,87340,2,0,P|168:36|128:48,2,70,8|0|0,0:0|0:0|0:0,0:0:0:0:
160,216,88249,2,0,P|172:256|168:296,1,70,8|0,0:0|0:0,0:0:0:0:
136,352,88703,6,0,L|280:368,1,140,0|8,0:0|0:0,0:0:0:0:
348,344,89385,1,0,0:0:0:0:
372,272,89612,2,0,P|356:224|372:172,1,105,0|0,0:0|0:0,0:0:0:0:
448,168,90181,2,0,L|460:136,1,35,0|8,0:0|0:0,0:0:0:0:
404,84,90522,6,0,P|376:60|344:64,1,70
280,100,90976,2,0,P|232:128|184:116,1,105,8|0,0:0|0:0,0:0:0:0:
124,76,91544,2,0,P|72:92|40:132,1,105,0|8,0:0|0:0,0:0:0:0:
32,208,92112,1,0,0:0:0:0:
52,284,92340,6,0,P|88:328|168:340,1,140,0|8,0:0|0:0,0:0:0:0:
276,232,93249,2,0,L|288:160,1,70
272,88,93703,1,0,0:0:0:0:
208,44,93931,1,8,0:0:0:0:
132,32,94158,5,0,0:0:0:0:
64,72,94385,1,0,0:0:0:0:
24,140,94613,1,8,0:0:0:0:
92,232,94953,1,0,0:0:0:0:
91,231,95181,2,0,P|136:207|182:231,1,105,0|8,0:0|0:0,0:0:0:0:
192,308,95749,1,0,0:0:0:0:
268,328,95976,5,0,0:0:0:0:
420,328,96430,1,8,0:0:0:0:
480,276,96658,1,0,0:0:0:0:
444,208,96885,2,0,L|444:104,1,105,0|8,0:0|0:0,0:0:0:0:
380,60,97453,2,0,L|336:60,1,35,0|8,0:0|0:0,0:0:0:0:
268,72,97794,5,0,0:0:0:0:
