osu file format v13

[General]
AudioFilename: I Wanna Disassemble Frenda.mp3
AudioLeadIn: 0
PreviewTime: 83249
Countdown: 1
SampleSet: Normal
StackLeniency: 0.7
Mode: 0
LetterboxInBreaks: 1
EpilepsyWarning: 1
WidescreenStoryboard: 1

[Editor]
Bookmarks: 10521,25067,39612,54158,68703,83249
DistanceSpacing: 1.2
BeatDivisor: 4
GridSize: 4
TimelineZoom: 2.5

[Metadata]
Title:I Wanna Disassemble Frenda
TitleUnicode:I Wanna Disassemble Frenda
Artist:NicoNicoDouga
ArtistUnicode:NicoNicoDouga
Creator:Chamle
Version:Insane
Source:To Aru Kagaku no Railgun S
Tags:sisters seivelun
BeatmapID:470643
BeatmapSetID:198375

[Difficulty]
HPDrainRate:7
CircleSize:4.5
OverallDifficulty:7
ApproachRate:7.5
SliderMultiplier:2.89999990463257
SliderTickRate:1

[Events]
//Background and Video events
0,0,"bg.jpg",0,0
Video,0,"VidFrenda.avi"
//Break Periods
2,76176,80606
//Storyboard Layer 0 (Background)
//Storyboard Layer 1 (Fail)
//Storyboard Layer 2 (Pass)
//Storyboard Layer 3 (Foreground)
//Storyboard Sound Samples
//Background Colour Transformations
3,100,163,162,255

[TimingPoints]
6885,454.545454545455,4,1,1,70,1,0
75976,-100,4,1,0,30,0,0
83249,-100,4,1,1,70,0,1
97794,-200,4,2,0,30,0,0

[Colours]
Combo1 : 255,128,0
Combo2 : 255,255,255
Combo3 : 116,116,252
Combo4 : 252,97,97

[HitObjects]
96,72,10521,6,0,P|56:132|76:200,1,144.999995231629,0|0,0:0|2:0,0:0:0:0:
128,340,10975,2,0,P|168:280|148:212,1,144.999995231629,8|0,0:0|2:0,0:0:0:0:
260,88,11431,1,0,0:0:0:0:
232,72,11885,1,8,0:0:0:0:
464,16,12340,6,0,P|480:88|428:128,1,144.999995231629,0|0,0:0|2:0,0:0:0:0:
320,236,12794,2,0,P|304:164|356:124,2,144.999995231629,8|0|0,0:0|2:0|2:0,0:0:0:0:
324,344,13476,1,0,2:0:0:0:
272,372,13590,2,0,L|128:348,1,144.999995231629,0|0,2:0|2:0,0:0:0:0:
96,300,13931,1,8,0:0:0:0:
112,136,14158,6,0,P|170:100|177:28,1,144.999995231629,0|0,0:0|2:0,0:0:0:0:
112,136,14612,2,0,P|53:171|46:243,1,144.999995231629,8|0,0:0|2:0,0:0:0:0:
184,240,15067,1,0,0:0:0:0:
32,24,15522,1,8,0:0:0:0:
224,68,15976,6,0,B|276:52|324:96|372:72,1,144.999995231629,0|0,0:0|2:0,0:0:0:0:
460,144,16431,2,0,B|408:128|360:172|312:148,1,144.999995231629,8|0,0:0|2:0,0:0:0:0:
112,308,16885,2,0,P|183:288|251:306,1,144.999995231629,0|0,2:0|2:0,0:0:0:0:
304,324,17226,2,0,P|351:270|367:200,1,144.999995231629,0|0,2:0|2:0,0:0:0:0:
336,152,17567,2,0,L|264:120,1,72.4999976158143,8|0,0:0|2:0,0:0:0:0:
212,128,17794,6,0,P|140:144|80:180,1,144.999995231629,0|0,0:0|2:0,0:0:0:0:
159,23,18249,2,0,P|89:37|28:76,1,144.999995231629,8|0,0:0|2:0,0:0:0:0:
212,260,18703,5,0,0:0:0:0:
184,276,19158,1,8,0:0:0:0:
300,128,19612,6,0,P|372:144|432:180,1,144.999995231629,0|0,0:0|2:0,0:0:0:0:
351,23,20067,2,0,P|422:38|484:76,1,144.999995231629,8|0,0:0|2:0,0:0:0:0:
304,272,20521,5,0,2:0:0:0:
328,280,20862,1,0,2:0:0:0:
352,300,21203,1,8,0:0:0:0:
368,312,21431,6,0,P|432:292|460:224,1,144.999995231629,0|0,0:0|2:0,0:0:0:0:
412,120,21885,2,0,P|424:40|472:0,1,144.999995231629,8|0,0:0|2:0,0:0:0:0:
488,0,22225,1,0,2:0:0:0:
504,0,22339,1,0,1:0:0:0:
428,196,22567,1,0,2:0:0:0:
328,24,22794,1,8,0:0:0:0:
176,344,23249,6,0,P|184:272|160:200,1,144.999995231629,0|0,0:0|2:0,0:0:0:0:
120,136,23590,2,0,P|116:104|124:64,1,72.4999976158143,0|8,2:0|0:0,0:0:0:0:
162,203,23931,1,0,2:0:0:0:
84,308,24158,1,0,2:0:0:0:
256,288,24499,1,0,2:0:0:0:
428,308,24840,1,8,0:0:0:0:
356,200,25067,6,0,P|360:132|424:100,1,144.999995231629,0|0,0:0|2:0,0:0:0:0:
324,360,25521,2,0,P|386:329|390:259,1,144.999995231629,8|0,0:0|2:0,0:0:0:0:
420,172,25862,1,2,0:0:0:0:
28,268,26203,1,0,2:0:0:0:
28,352,26431,2,0,L|172:352,1,144.999995231629,8|0,0:0|2:0,0:0:0:0:
196,224,26885,6,0,P|188:148|160:84,2,144.999995231629,0|0|8,0:0|2:0|0:0,0:0:0:0:
280,324,27567,1,0,2:0:0:0:
344,340,27681,1,2,0:0:0:0:
492,212,28022,1,2,0:0:0:0:
360,68,28362,1,0,0:0:0:0:
424,48,28476,1,8,0:0:0:0:
388,172,28703,6,0,P|324:204|248:200,1,144.999995231629,0|0,0:0|2:0,0:0:0:0:
36,128,29158,2,0,P|100:96|172:100,1,144.999995231629,8|0,0:0|2:0,0:0:0:0:
20,192,29499,1,2,0:0:0:0:
76,308,29840,1,0,0:0:0:0:
136,336,29953,2,2,B|158:348|158:348|153:330|153:330|169:337|169:337|164:320|164:320|181:326|181:326|176:309|176:309|193:315|193:315|188:298|188:298|205:304|205:304|216:288|216:288|224:272|224:272|228:256|228:256,1,217.499992847443,2|2,0:0|0:0,0:0:0:0:
260,136,30522,6,0,P|304:80|380:64,1,144.999995231629,0|0,0:0|2:0,0:0:0:0:
228,260,30976,2,0,P|297:243|341:187,1,144.999995231629,8|0,0:0|2:0,0:0:0:0:
228,48,31317,1,2,0:0:0:0:
32,36,31658,2,0,B|4:104|48:176|20:252,1,217.499992847443,0|0,0:0|2:0,0:0:0:0:
0,312,32112,1,8,0:0:0:0:
48,356,32226,1,0,0:0:0:0:
112,340,32340,6,0,L|256:324,2,144.999995231629,0|0|8,0:0|2:0|0:0,0:0:0:0:
112,208,33022,1,0,2:0:0:0:
176,200,33135,1,2,0:0:0:0:
88,24,33476,2,0,P|156:16|224:48,1,144.999995231629,2|8,0:0|0:0,0:0:0:0:
308,148,33931,2,0,L|364:100,1,72.4999976158143,2|0,0:0|2:0,0:0:0:0:
420,72,34158,6,0,P|496:96|504:164,1,144.999995231629,0|0,0:0|2:0,0:0:0:0:
316,312,34612,2,0,B|360:280|400:312|452:272,1,144.999995231629,8|0,0:0|2:0,0:0:0:0:
272,364,34953,1,2,0:0:0:0:
75,160,35294,2,0,P|55:227|92:288,2,144.999995231629,0|2|8,0:0|0:0|0:0,0:0:0:0:
180,80,35976,6,0,L|328:60,1,144.999995231629,0|0,0:0|2:0,0:0:0:0:
472,239,36431,2,0,P|479:167|448:104,1,144.999995231629,8|0,0:0|2:0,0:0:0:0:
432,292,36772,1,2,0:0:0:0:
240,264,37112,1,0,2:0:0:0:
196,312,37226,2,2,B|174:324|174:324|179:306|179:306|163:313|163:313|168:296|168:296|151:302|151:302|156:285|156:285|139:291|139:291|144:274|144:274|127:280|127:280|116:264|116:264|108:248|108:248|104:232|104:232,1,217.499992847443,2|2,0:0|0:0,0:0:0:0:
76,104,37794,6,0,P|136:48|200:36,1,144.999995231629,0|0,0:0|2:0,0:0:0:0:
8,78,38249,2,0,P|77:97|127:148,1,144.999995231629,8|0,0:0|2:0,0:0:0:0:
36,160,38590,1,2,0:0:0:0:
168,268,38931,6,0,L|160:348,1,72.4999976158143
204,248,39158,2,0,L|212:168,1,72.4999976158143
248,232,39385,2,0,L|240:312,1,72.4999976158143,8|0,0:0|0:0,0:0:0:0:
288,212,39612,6,0,P|368:200|428:228,2,144.999995231629,0|0|8,0:0|0:0|0:0,0:0:0:0:
316,280,40181,2,0,P|232:252|220:220,1,72.4999976158143
212,208,40408,1,0,0:0:0:0:
408,116,40635,2,2,P|436:184|424:256,1,144.999995231629,2|0,0:0|0:0,0:0:0:0:
380,312,40976,1,8,0:0:0:0:
236,288,41203,1,0,0:0:0:0:
100,336,41431,6,0,P|44:284|40:220,1,144.999995231629
296,194,41885,2,0,P|250:248|180:248,1,144.999995231629,8|2,0:0|0:0,0:0:0:0:
216,180,42226,1,2,0:0:0:0:
100,336,42453,2,0,P|160:356|248:348,1,144.999995231629
300,308,42794,2,0,L|368:336,1,72.4999976158143
436,316,43022,1,8,0:0:0:0:
360,24,43249,6,0,P|288:32|232:80,1,144.999995231629
448,80,43703,1,8,0:0:0:0:
448,80,43816,2,0,P|440:156|392:200,1,144.999995231629
336,152,44158,1,0,0:0:0:0:
336,152,44271,2,2,P|332:236|380:272,1,144.999995231629,2|0,0:0|0:0,0:0:0:0:
448,260,44612,1,8,0:0:0:0:
276,356,44840,6,0,P|200:328|136:336,2,144.999995231629,0|0|0,0:0|0:0|0:0,0:0:0:0:
368,128,45522,2,2,P|352:197|384:261,1,144.999995231629,8|0,0:0|0:0,0:0:0:0:
424,76,45862,1,2,0:0:0:0:
143,34,46090,2,0,B|180:52|228:20|288:28,1,144.999995231629
356,56,46431,1,0,0:0:0:0:
424,76,46544,1,0,0:0:0:0:
496,64,46658,1,8,0:0:0:0:
384,260,46885,6,0,P|328:320|268:316,1,144.999995231629
76,344,47340,1,8,0:0:0:0:
128,288,47453,2,0,P|136:216|112:148,1,144.999995231629
52,192,47794,1,0,0:0:0:0:
48,120,47908,2,2,P|88:80|168:104,1,144.999995231629,2|0,0:0|0:0,0:0:0:0:
228,144,48249,2,0,P|300:160|372:144,1,144.999995231629,8|0,0:0|0:0,0:0:0:0:
316,24,48703,5,0,0:0:0:0:
384,20,48816,1,0,0:0:0:0:
452,28,48931,2,0,P|488:100|468:156,1,144.999995231629,0|8,0:0|0:0,0:0:0:0:
352,244,49385,1,0,0:0:0:0:
280,264,49499,2,2,P|336:316|400:304,1,144.999995231629,2|0,0:0|0:0,0:0:0:0:
380,108,49953,2,0,B|340:100|312:124,1,72.4999976158143
252,164,50181,1,0,0:0:0:0:
180,156,50294,1,8,0:0:0:0:
72,256,50522,6,0,P|28:192|32:124,1,144.999995231629
32,316,50976,1,8,0:0:0:0:
32,316,51090,2,0,P|124:308|140:244,1,144.999995231629
164,200,51431,1,0,0:0:0:0:
164,200,51544,2,2,L|300:144,1,144.999995231629,2|0,0:0|0:0,0:0:0:0:
312,72,51885,2,0,P|360:28|432:44,2,144.999995231629,8|0|0,0:0|0:0|0:0,0:0:0:0:
430,306,52567,6,0,P|443:235|420:168,1,144.999995231629,0|8,0:0|0:0,0:0:0:0:
232,364,53022,1,2,0:0:0:0:
292,320,53136,2,0,P|368:296|436:312,1,144.999995231629,2|0,0:0|0:0,0:0:0:0:
420,168,53590,1,0,0:0:0:0:
380,108,53703,1,0,0:0:0:0:
440,64,53817,2,0,L|400:-4,1,72.4999976158143,0|8,0:0|0:0,0:0:0:0:
256,192,54158,12,2,55067,0:0:0:0:
184,352,55522,5,0,0:0:0:0:
284,24,55749,1,2,0:0:0:0:
380,168,55976,5,0,0:0:0:0:
380,168,56203,2,0,P|232:148|128:232,1,289.999990463257
120,304,56772,1,0,0:0:0:0:
184,352,56885,2,0,P|244:320|320:336,1,144.999995231629
428,240,57340,2,0,P|436:204|424:172,3,72.4999976158143,0|0|8|0,0:0|0:0|0:0|0:0,0:0:0:0:
328,32,57794,6,0,P|268:64|192:48,1,144.999995231629
84,144,58249,2,0,P|76:180|88:212,3,72.4999976158143,0|0|8|0,0:0|0:0|0:0|0:0,0:0:0:0:
184,352,58703,2,0,P|244:320|320:336,1,144.999995231629
428,240,59158,2,0,P|436:204|424:172,3,72.4999976158143,0|0|8|0,0:0|0:0|0:0|0:0,0:0:0:0:
328,32,59612,6,0,P|268:64|192:48,1,144.999995231629,0|8,0:0|0:0,0:0:0:0:
184,352,60067,2,0,P|244:320|320:336,1,144.999995231629,0|8,0:0|0:0,0:0:0:0:
328,32,60522,2,0,P|268:64|192:48,1,144.999995231629,0|2,0:0|0:0,0:0:0:0:
376,280,60976,1,0,0:0:0:0:
299,224,61090,1,0,0:0:0:0:
212,159,61204,1,8,0:0:0:0:
136,104,61317,1,0,0:0:0:0:
60,48,61431,6,0,P|20:112|28:184,1,144.999995231629
452,336,61885,2,0,P|492:272|484:200,2,144.999995231629,8|0|0,0:0|0:0|0:0,0:0:0:0:
376,280,62567,1,0,0:0:0:0:
136,104,62794,1,8,0:0:0:0:
256,192,63022,1,2,0:0:0:0:
124,248,63249,6,0,P|80:304|8:304,1,144.999995231629
388,136,63703,2,0,P|432:80|504:80,1,144.999995231629,8|0,0:0|0:0,0:0:0:0:
444,280,64158,2,0,P|476:216|464:144,1,144.999995231629,0|2,0:0|0:0,0:0:0:0:
68,104,64612,2,0,P|36:168|48:240,1,144.999995231629,0|8,0:0|0:0,0:0:0:0:
88,296,64953,1,0,0:0:0:0:
160,288,65067,6,0,P|228:288|276:344,1,144.999995231629
352,96,65522,2,0,P|284:96|236:40,2,144.999995231629,8|2|2,0:0|0:0|0:0,0:0:0:0:
424,319,66203,2,0,P|462:259|464:188,1,144.999995231629,0|8,0:0|0:0,0:0:0:0:
288,368,66658,1,0,0:0:0:0:
152,316,66885,6,0,L|16:260,1,144.999995231629
360,316,67340,2,0,L|496:260,1,144.999995231629,8|0,0:0|0:0,0:0:0:0:
200,164,67794,2,2,L|84:72,1,144.999995231629
312,164,68249,1,0,0:0:0:0:
350,134,68362,1,0,0:0:0:0:
388,104,68476,1,8,0:0:0:0:
426,75,68589,1,0,0:0:0:0:
464,48,68703,6,0,P|500:112|488:180,1,144.999995231629
336,296,69158,2,0,P|300:232|312:164,1,144.999995231629,8|0,0:0|0:0,0:0:0:0:
350,134,69499,1,0,0:0:0:0:
368,96,69612,1,0,0:0:0:0:
352,56,69726,1,8,0:0:0:0:
316,32,69840,1,0,0:0:0:0:
272,36,69953,1,0,0:0:0:0:
240,64,70067,2,0,L|216:132,1,72.4999976158143,8|0,0:0|0:0,0:0:0:0:
192,96,70294,2,0,L|120:112,1,72.4999976158143,8|0,0:0|0:0,0:0:0:0:
136,72,70522,5,0,0:0:0:0:
92,68,70635,2,0,L|80:32,2,36.2499988079071,0|0|8,0:0|0:0|0:0,0:0:0:0:
56,92,70862,1,0,0:0:0:0:
40,132,70976,2,0,L|24:204,1,72.4999976158143,8|0,0:0|0:0,0:0:0:0:
60,180,71203,2,0,L|72:256,1,72.4999976158143,8|0,0:0|0:0,0:0:0:0:
100,216,71431,1,0,0:0:0:0:
144,208,71544,1,8,0:0:0:0:
188,216,71658,1,0,0:0:0:0:
224,240,71772,1,0,0:0:0:0:
244,280,71885,1,8,0:0:0:0:
412,352,72112,5,2,0:0:0:0:
440,320,72226,1,0,0:0:0:0:
448,276,72340,2,0,P|444:204|476:128,2,144.999995231629,0|0|8,0:0|0:0|0:0,0:0:0:0:
440,320,72908,2,0,P|412:352|376:360,2,72.4999976158143,0|0|8,0:0|0:0|0:0,0:0:0:0:
448,276,73249,1,0,0:0:0:0:
444,232,73362,1,8,0:0:0:0:
420,196,73476,1,0,0:0:0:0:
380,180,73590,1,0,0:0:0:0:
336,184,73703,2,0,L|316:216,2,36.2499988079071,8|0|0,0:0|0:0|0:0,0:0:0:0:
292,176,73931,2,0,L|220:196,1,72.4999976158143,0|8,0:0|0:0,0:0:0:0:
244,156,74158,5,8,0:0:0:0:
212,128,74272,1,0,0:0:0:0:
168,124,74385,1,0,0:0:0:0:
128,140,74499,1,8,0:0:0:0:
100,172,74612,2,0,B|56:240|144:240|92:308,1,144.999995231629,8|0,0:0|0:0,0:0:0:0:
68,340,74953,2,0,B|136:384|136:296|204:348,1,144.999995231629,8|0,0:0|0:0,0:0:0:0:
240,368,75294,2,0,B|284:300|196:300|248:232,1,144.999995231629,8|0,0:0|0:0,0:0:0:0:
276,204,75635,1,0,0:0:0:0:
316,188,75749,1,8,0:0:0:0:
360,184,75862,1,0,0:0:0:0:
400,168,75976,5,4,0:0:0:0:
256,192,81431,12,2,82794,0:0:0:0:
104,28,83249,6,0,P|56:88|48:156,1,144.999995231629
88,324,83703,1,8,0:0:0:0:
88,324,83817,2,0,P|136:264|144:196,1,144.999995231629
60,236,84158,1,0,0:0:0:0:
60,236,84272,2,0,L|200:280,1,144.999995231629
244,352,84612,2,0,L|320:336,1,72.4999976158143,8|0,0:0|0:0,0:0:0:0:
403,266,84840,2,0,L|332:252,1,72.4999976158143
452,340,85067,6,0,P|488:276|460:204,1,144.999995231629
396,52,85522,2,0,P|360:116|388:188,1,144.999995231629,8|0,0:0|0:0,0:0:0:0:
423,248,85862,2,0,P|459:187|440:120,1,144.999995231629
268,324,86317,1,0,0:0:0:0:
104,272,86544,2,0,L|176:260,1,72.4999976158143,0|8,0:0|0:0,0:0:0:0:
224,188,86772,1,0,0:0:0:0:
192,108,86885,6,0,P|248:52|312:48,1,144.999995231629
484,72,87340,2,0,L|460:144,1,72.4999976158143,8|0,0:0|0:0,0:0:0:0:
368,180,87567,2,0,L|392:108,2,72.4999976158143,0|0|0,0:0|0:0|0:0,0:0:0:0:
424,244,87908,2,0,P|384:308|320:328,1,144.999995231629,0|0,0:0|0:0,0:0:0:0:
232,320,88249,1,8,0:0:0:0:
72,268,88476,1,0,0:0:0:0:
20,196,88590,1,0,0:0:0:0:
44,112,88703,6,0,P|104:64|176:56,1,144.999995231629,0|0,0:0|0:0,0:0:0:0:
130,140,89044,1,0,0:0:0:0:
130,140,89158,2,0,P|200:129|256:84,1,144.999995231629,8|0,0:0|0:0,0:0:0:0:
312,16,89499,2,0,L|456:40,2,144.999995231629,0|0|0,0:0|0:0|0:0,0:0:0:0:
356,184,90181,1,0,0:0:0:0:
384,264,90294,1,8,0:0:0:0:
328,332,90408,1,0,0:0:0:0:
240,320,90522,6,0,P|160:304|96:316,1,144.999995231629
240,320,90976,1,8,0:0:0:0:
208,240,91090,1,0,0:0:0:0:
232,156,91203,1,0,0:0:0:0:
312,120,91317,1,0,0:0:0:0:
208,240,91544,6,0,P|136:251|66:235,1,144.999995231629,0|0,0:0|0:0,0:0:0:0:
132,180,91885,2,0,P|147:250|136:321,2,144.999995231629,8|0|0,0:0|0:0|0:0,0:0:0:0:
36,36,92567,1,0,0:0:0:0:
207,239,92794,2,0,P|136:251|66:235,1,144.999995231629,8|0,0:0|0:0,0:0:0:0:
288,204,93135,2,0,P|358:188|429:199,1,144.999995231629,0|0,0:0|0:0,0:0:0:0:
336,348,93590,2,0,L|356:276,1,72.4999976158143
364,192,93817,1,0,0:0:0:0:
316,120,93931,1,8,0:0:0:0:
164,36,94158,6,0,P|136:100|140:176,1,144.999995231629,0|0,0:0|0:0,0:0:0:0:
264,340,94613,2,0,P|284:312|280:276,1,72.4999976158143,8|0,0:0|0:0,0:0:0:0:
268,192,94840,1,0,0:0:0:0:
316,120,94953,1,0,0:0:0:0:
164,36,95181,1,0,0:0:0:0:
488,40,95408,1,0,0:0:0:0:
488,40,95522,2,0,P|504:112|480:176,1,144.999995231629,8|0,0:0|0:0,0:0:0:0:
408,156,95862,1,0,0:0:0:0:
328,268,95976,6,0,P|312:196|336:132,2,144.999995231629,0|0|8,1:0|0:0|1:0,0:0:0:0:
492,336,96658,1,0,0:0:0:0:
408,364,96772,2,0,L|264:340,1,144.999995231629,0|0,0:0|0:0,0:0:0:0:
196,288,97113,1,0,0:0:0:0:
108,296,97226,1,0,0:0:0:0:
40,244,97340,2,0,L|20:172,1,72.4999976158143
44,92,97567,1,8,0:0:0:0:
312,40,97794,5,0,0:0:0:0:
