osu file format v9

[General]
AudioFilename: NicoNicoDouga - Hankei 1m Zone.mp3
AudioLeadIn: 0
PreviewTime: 39189
Countdown: 1
SampleSet: Soft
StackLeniency: 0.7
Mode: 1
LetterboxInBreaks: 1

[Editor]
DistanceSpacing: 0.8
BeatDivisor: 4
GridSize: 8

[Metadata]
Title:Hankei 1M zone
Artist:NicoNicoDouga
Creator:matthewhln
Version:Taiko L5
Source:Higurashi no Naku Koro ni Rei
Tags:red zone Rika

[Difficulty]
HPDrainRate:5
CircleSize:5
OverallDifficulty:5
ApproachRate:5
SliderMultiplier:1.4
SliderTickRate:1

[Events]
//Background and Video events
0,0,"Taiko_BackGround.png"
//Break Periods
//Storyboard Layer 0 (Background)
//Storyboard Layer 1 (Fail)
//Storyboard Layer 2 (Pass)
//Storyboard Layer 3 (Foreground)
//Storyboard Sound Samples
//Background Colour Transformations
3,100,163,162,255

[TimingPoints]
43543,363.592291843413,4,2,0,100,1,0

[HitObjects]
64,32,43542,1,0
112,32,43633,1,0
112,80,43724,1,0
64,80,43815,1,0
88,112,43906,1,0
240,48,44088,1,0
272,48,44179,1,0
416,48,44361,1,0
448,48,44451,1,0
416,184,44633,1,0
456,160,44724,1,0
456,200,44815,1,0
448,280,44997,1,0
392,280,45270,1,0
448,336,45542,1,2
392,336,45815,1,0
280,336,46088,1,2
248,336,46269,1,2
72,328,46451,1,2
128,328,46542,1,0
72,288,46633,1,0
128,288,46724,1,0
72,240,46815,1,2
128,240,46906,1,0
72,192,46997,1,0
128,192,47088,1,0
72,144,47178,1,2
128,144,47269,1,0
72,104,47360,1,0
128,104,47451,1,10
200,48,47906,1,0
256,48,48178,1,0
312,48,48451,1,2
456,48,48724,1,0
464,160,48996,1,2
464,208,49178,1,2
464,288,49360,1,2
464,344,49451,1,0
408,288,49542,1,0
408,344,49633,1,2
352,288,49724,1,2
352,344,49814,1,0
296,288,49905,1,2
296,344,49996,1,0
56,312,50087,1,2
104,312,50269,1,2
96,168,50451,1,2
56,168,50542,1,2
80,208,50633,1,2
88,24,50814,1,0
88,64,51087,1,0
136,24,51360,1,2
136,64,51632,1,0
184,24,51905,1,2
184,64,52087,1,2
424,32,52269,1,2
472,32,52360,1,0
424,80,52451,1,0
472,80,52541,1,2
424,128,52632,1,2
472,128,52723,1,0
424,176,52814,1,0
472,176,52905,1,2
424,224,52996,1,2
472,224,53087,1,0
424,272,53178,1,0
472,272,53269,1,2
424,320,53359,1,2
472,320,53450,1,0
424,368,53541,1,2
472,368,53632,1,2
352,296,53723,1,0
256,296,53996,1,0
208,296,54268,1,0
56,304,54541,1,2
104,304,54632,1,2
56,256,54723,1,0
104,256,54814,1,2
56,208,54905,1,0
104,208,54996,1,2
56,160,55087,1,2
112,40,55268,1,2
112,80,55541,1,2
208,40,55723,1,0
208,80,55814,1,2
432,64,55996,1,2
432,200,56177,1,0
480,240,56268,1,2
384,240,56359,1,0
384,152,56450,1,0
472,152,56541,1,2
64,40,59541,1,0
120,40,59813,1,2
64,88,60086,1,0
120,88,60359,1,2
64,136,60631,1,2
120,136,60813,1,2
408,48,60995,1,0
456,48,61086,1,0
408,88,61177,5,0
456,88,61268,1,2
408,128,61359,1,2
456,128,61449,1,0
408,168,61540,1,0
456,168,61631,1,2
408,208,61722,1,2
456,208,61813,1,0
408,248,61904,1,0
456,248,61995,1,2
408,288,62086,1,2
456,288,62177,1,0
408,328,62268,1,2
456,328,62358,1,2
200,40,65358,1,2
288,40,65631,1,0
200,104,65903,1,2
288,104,66176,1,0
200,160,66449,1,2
288,160,66631,1,2
408,24,66812,1,4
408,88,67176,1,4
408,152,67358,1,4
408,224,67721,1,4
408,296,67903,1,4
408,360,68085,1,4
40,40,68267,5,2
96,40,68449,1,0
40,96,68630,1,2
96,96,68812,1,0
40,200,68994,1,2
88,200,69085,1,2
40,240,69176,1,0
88,240,69267,1,2
256,40,69539,1,0
232,128,69721,1,2
288,128,69903,1,0
232,184,70085,1,0
288,184,70267,1,0
232,288,70448,1,2
288,288,70539,1,0
232,328,70630,1,0
288,328,70721,1,2
408,56,70903,1,0
464,56,70994,1,2
440,96,71085,1,0
440,144,71176,1,2
408,224,71357,1,0
472,224,71539,1,2
440,264,71721,1,0
32,48,71903,1,2
88,48,71994,1,2
32,104,72084,1,0
88,104,72175,1,2
56,192,72448,1,0
32,248,72630,1,2
96,248,72721,1,0
32,296,72812,1,0
88,296,72903,1,0
32,352,72993,1,2
88,352,73175,1,0
224,80,73357,1,2
256,136,73448,1,0
288,80,73539,1,2
416,64,73812,1,0
392,120,73902,1,2
448,120,73993,1,2
424,176,74084,1,2
432,264,74266,1,0
480,296,74448,1,2
440,320,74630,1,0
296,264,74811,1,2
296,320,74902,1,2
240,264,74993,1,0
240,320,75084,1,2
136,280,75357,1,2
96,328,75539,1,0
72,280,75720,1,2
80,176,75902,1,2
144,176,76084,1,0
120,32,76266,1,2
120,88,76357,1,0
192,32,76448,1,0
192,88,76539,1,2
400,48,76720,1,0
448,48,76811,1,2
400,96,76902,1,0
448,96,76993,1,2
416,144,77175,1,0
456,216,77357,1,2
400,216,77538,1,0
432,304,77720,1,2
432,352,77811,1,2
368,304,77902,1,0
368,352,77993,1,2
264,344,78266,1,2
128,280,78447,1,2
128,336,78538,1,0
72,336,78629,1,0
72,280,78720,1,0
104,232,78811,1,2
88,152,78993,1,0
160,32,79175,1,2
192,80,79265,1,0
216,32,79356,1,2
376,40,79902,1,0
432,40,80084,1,0
408,88,80265,1,2
384,176,80447,1,0
440,176,80538,1,0
416,256,80720,1,2
440,336,80902,1,0
392,336,80993,1,0
256,328,81174,1,2
128,320,81356,1,0
72,320,81538,1,2
88,208,81720,1,2
88,160,81811,1,0
96,48,81992,1,0
144,48,82083,1,2
256,40,82265,1,0
256,88,82356,1,2
376,40,82810,1,0
432,40,82992,1,0
408,88,83174,1,2
384,176,83356,5,0
440,176,83447,1,0
416,256,83629,1,2
440,336,83810,1,0
392,336,83901,1,0
256,328,84083,1,2
120,320,84265,1,0
72,320,84356,1,0
120,280,84447,1,2
72,280,84538,1,0
120,232,84628,1,0
72,232,84719,1,2
120,192,84810,1,0
72,192,84901,1,0
120,152,84992,1,2
72,152,85083,1,0
120,104,85174,1,2
72,104,85265,1,0
120,56,85356,1,2
72,56,85447,1,0
360,16,85719,1,0
392,64,85901,1,0
424,104,86083,1,2
400,200,86265,1,0
440,200,86355,1,0
416,312,86537,1,2
256,320,86719,1,0
256,280,86810,1,2
152,304,86992,1,2
48,312,87174,1,2
48,264,87264,1,2
48,184,87446,1,0
64,80,87719,1,0
112,48,87992,1,0
112,96,88264,1,0
160,80,88537,1,2
192,40,90809,1,6
256,40,91082,1,6
320,40,91355,1,4
416,120,91537,1,0
448,168,91718,1,0
392,168,91900,1,0
456,312,92264,1,2
416,336,92627,1,2
416,288,92809,1,0
144,344,93173,1,0
72,344,93355,1,0
144,280,93536,1,0
232,208,93627,1,0
72,280,93718,1,2
144,216,93900,1,2
72,216,94082,1,2
144,152,94264,1,0
232,32,94445,1,0
264,72,94627,1,0
296,32,94809,1,0
440,56,95173,1,2
440,160,95536,1,2
440,224,95718,1,0
160,224,96082,1,0
160,224,96172,1,0
416,336,96263,1,2
360,280,96445,1,0
360,328,96627,1,0
304,280,96809,1,0
304,328,96991,1,2
88,328,97354,1,4
88,288,97536,1,4
88,232,97718,1,4
104,88,98081,1,2
152,64,98445,1,0
200,72,98627,1,2
384,40,98990,1,2
448,40,99172,1,0
384,96,99354,1,0
208,208,99445,1,0
448,96,99536,1,2
384,152,99718,1,0
448,152,99899,1,2
384,208,100081,1,2
440,328,100263,1,0
328,352,100445,1,0
328,304,100626,1,0
240,320,100990,1,2
104,344,101354,1,2
160,344,101535,1,0
104,232,101899,1,2
288,160,102081,1,0
288,160,102172,1,0
288,160,102263,1,0
224,40,102444,1,2
272,40,102626,1,2
224,88,102808,1,2
272,88,102990,1,0
40,40,103172,5,2
96,40,103353,1,0
40,96,103535,1,2
96,96,103717,1,0
40,200,103899,1,2
88,200,103990,1,2
40,240,104081,1,0
88,240,104172,1,2
232,64,104444,1,0
296,72,104535,1,0
232,120,104626,1,2
288,128,104808,1,0
232,184,104990,1,2
288,184,105171,1,0
232,288,105353,1,2
288,288,105444,1,0
232,328,105535,1,0
288,328,105626,1,2
408,56,105808,1,0
464,56,105899,1,2
440,96,105989,1,0
440,144,106080,1,2
408,224,106262,1,0
472,224,106444,1,2
440,264,106626,1,0
32,48,106808,1,2
88,48,106898,1,2
32,104,106989,1,0
88,104,107080,1,2
56,192,107353,1,0
32,248,107535,1,2
96,248,107626,1,0
32,296,107717,1,0
88,296,107807,1,0
32,352,107898,1,2
88,352,108080,1,0
224,80,108262,1,2
256,136,108353,1,0
288,80,108444,1,2
416,64,108716,1,0
392,120,108807,1,2
448,120,108898,1,2
424,176,108989,1,2
432,264,109171,1,0
480,296,109353,1,2
440,320,109535,1,0
296,264,109716,1,2
296,320,109807,1,2
240,264,109898,1,0
240,320,109989,1,2
136,280,110262,1,2
144,328,110353,1,0
96,328,110443,1,2
72,280,110625,1,0
80,176,110807,1,2
144,176,110989,1,0
120,32,111171,1,2
120,88,111262,1,0
192,32,111352,1,0
192,88,111443,1,2
400,48,111625,1,0
448,48,111716,1,2
400,96,111807,1,0
448,96,111898,1,2
416,144,112080,1,0
456,216,112261,1,2
400,216,112443,1,0
432,304,112625,1,2
432,352,112716,1,2
368,304,112807,1,0
368,352,112898,1,2
264,344,113170,1,2
128,280,113352,1,2
128,336,113443,1,0
72,336,113534,1,0
72,280,113625,1,0
104,232,113716,1,2
88,152,113898,1,0
160,32,114079,1,2
192,80,114170,1,0
216,32,114261,1,2
416,40,114807,1,0
448,88,114988,1,0
392,88,115170,1,2
448,192,115352,1,0
384,192,115443,1,0
432,304,115625,1,2
256,272,115806,1,0
256,328,115897,1,0
120,304,116079,1,2
80,176,116261,1,0
80,48,116443,1,2
232,48,116625,1,0
288,48,116715,1,0
400,48,116897,1,0
448,48,116988,1,2
400,128,117170,1,0
448,128,117261,1,2
464,248,117715,5,0
464,304,117897,1,0
384,304,118079,1,2
256,264,118261,1,0
256,312,118352,1,0
104,288,118533,1,0
88,192,118715,1,0
136,192,118806,1,0
104,104,118988,1,2
408,24,119170,1,0
464,24,119261,1,0
408,80,119351,1,2
464,80,119442,1,0
408,128,119533,1,0
464,128,119624,1,2
408,176,119715,1,0
464,176,119806,1,0
408,216,119897,1,2
464,216,119988,1,0
408,256,120079,1,0
464,256,120170,1,2
408,296,120260,1,2
464,296,120351,1,0
264,304,120624,1,0
200,304,120806,1,0
144,320,120988,1,0
64,176,121169,1,0
64,120,121260,1,0
176,64,121442,1,2
256,128,121624,1,2
256,72,121715,1,2
448,56,121897,1,0
416,184,122078,1,0
472,184,122169,1,2
472,248,122260,1,0
432,248,122351,1,0
280,288,122533,1,0
232,288,122624,1,0
80,240,122897,1,0
128,240,123169,1,0
104,192,123442,1,2
184,64,125714,1,6
256,64,125987,1,6
328,64,126260,1,4
464,336,126442,2,0,L|40:336,1,420
72,48,127896,5,0
72,96,127987,1,0
120,48,128078,1,2
120,96,128169,1,0
168,48,128260,1,0
168,96,128350,1,2
216,48,128441,1,0
216,96,128532,1,0
264,48,128623,1,2
264,96,128714,1,0
312,48,128805,1,0
312,96,128896,1,2
360,48,128987,1,2
360,96,129078,1,2
408,48,129168,1,2
408,96,129259,1,0
456,48,129350,1,0
408,152,129532,1,0
456,152,129623,1,0
408,200,129714,1,2
456,200,129805,1,2
408,248,129896,1,0
456,248,129987,1,0
408,296,130077,1,2
456,296,130168,1,2
456,344,130259,1,0
408,344,130350,1,2
360,296,130441,1,0
360,344,130532,1,0
312,296,130623,1,2
312,344,130714,1,0
264,296,130805,1,2
264,344,130896,1,2
216,296,130986,1,2
216,344,131077,1,2
168,296,131168,1,2
168,344,131259,1,2
120,344,131350,1,2
120,296,131441,1,2
72,344,131532,1,2
72,296,131623,1,2
72,248,131714,1,2
120,248,131805,1,2
120,200,131895,1,2
72,200,131986,1,2
72,152,132077,1,2
120,152,132168,1,2
72,104,132259,1,0
120,104,132350,1,0
72,56,132441,1,0
120,56,132532,1,0
168,56,132623,1,2
168,104,132714,1,2
216,56,132804,1,2
216,104,132895,1,2
264,56,132986,1,0
264,104,133077,1,0
312,56,133168,1,0
312,104,133259,1,0
360,56,133350,1,2
360,104,133441,1,2
408,56,133532,1,2
408,104,133622,1,0
456,56,133713,1,2
456,152,133895,1,2
408,200,134077,1,0
456,248,134259,1,2
456,296,134441,1,2
408,296,134531,1,0
456,344,134622,1,2
408,344,134713,1,0
360,344,134804,1,2
360,296,134895,1,0
312,296,134986,1,2
264,296,135168,1,0
264,344,135259,1,0
216,296,135350,1,2
216,344,135440,1,0
168,296,135531,1,2
168,344,135622,1,0
120,296,135713,1,0
120,344,135804,1,2
72,344,135895,1,0
72,296,135986,1,0
72,248,136077,1,0
120,248,136168,1,0
72,200,136259,1,2
120,200,136349,1,2
72,152,136440,1,2
120,152,136531,1,0
72,104,136622,1,2
120,104,136713,1,0
72,56,136804,1,0
120,56,136895,1,2
168,56,136986,1,2
168,104,137077,1,0
216,56,137168,1,0
216,104,137258,1,2
264,56,137349,1,2
264,104,137440,1,0
312,56,137531,1,0
312,104,137622,1,0
352,56,137713,1,2
352,104,137804,1,0
392,56,137895,1,0
392,104,137986,1,0
440,56,138076,1,2
440,104,138167,1,0
440,152,138258,1,0
392,152,138349,1,2
440,200,138440,1,2
392,200,138531,1,0
440,248,138622,1,2
392,248,138713,1,0
440,296,138804,1,2
392,296,138895,1,0
440,344,138985,1,0
392,344,139076,1,0
344,344,139167,1,2
344,296,139258,1,2
296,296,139349,1,0
296,344,139440,1,0
56,48,139531,5,0
96,104,139804,1,6
136,48,140076,1,4
64,48,140440,5,2
160,48,140531,1,2
256,48,140622,1,0
352,48,140803,1,2
448,48,140985,1,4
448,144,141258,1,6
448,240,141531,1,0
448,336,141894,1,2
352,336,141985,1,2
256,336,142076,1,0
160,336,142258,1,6
64,336,142531,1,6
