osu file format v9

[General]
AudioFilename: NicoNicoDouga - Hankei 1m Zone.mp3
AudioLeadIn: 0
PreviewTime: 39167
Countdown: 1
SampleSet: Soft
StackLeniency: 0.7
Mode: 0
LetterboxInBreaks: 1

[Editor]
Bookmarks: 47670,52580,65640,73614
DistanceSpacing: 0.8
BeatDivisor: 4
GridSize: 8

[Metadata]
Title:Hankei 1M zone
Artist:NicoNicoDouga
Creator:matthewhln
Version:Sennen Majo
Source:Higurashi no Naku Koro ni Rei
Tags:red zone Rika

[Difficulty]
HPDrainRate:5
CircleSize:5
OverallDifficulty:6
ApproachRate:6
SliderMultiplier:1.4
SliderTickRate:1

[Events]
//Background and Video events
0,0,"sennenmajo.jpg"
Video,0,"Hankei 1M zone.avi"
//Break Periods
2,79393,113753
//Storyboard Layer 0 (Background)
//Storyboard Layer 1 (Fail)
//Storyboard Layer 2 (Pass)
//Storyboard Layer 3 (Foreground)
//Storyboard Sound Samples
//Background Colour Transformations
3,100,163,162,255

[TimingPoints]
43543,363.592291843413,4,2,0,100,1,0

[HitObjects]
256,192,43542,1,0
368,112,44997,5,0
368,192,45360,1,0
336,272,45724,1,0
256,272,46088,1,0
176,272,46451,1,0
144,192,46815,1,0
144,112,47178,1,0
256,96,47906,5,0
320,96,48269,1,0
384,128,48633,1,0
384,192,48996,1,0
384,256,49360,1,0
320,288,49724,1,0
256,288,50087,2,0,B|256:192,1,70,0|2
256,160,50451,2,8,B|320:160,2,35,8|8|8
240,160,50814,1,0
144,160,51178,5,0
96,208,51542,1,0
96,272,51905,1,0
144,320,52269,1,0
208,320,52632,1,0
208,240,52996,1,0
304,240,53359,1,0
256,192,53905,12,12,56450
32,352,56814,5,0
96,352,57177,1,8
160,352,57541,1,0
224,352,57904,1,8
288,352,58268,1,0
352,352,58632,1,8
416,352,58995,1,0
480,352,59359,1,12
256,192,59722,12,12,62268
480,352,62631,5,8
416,352,62995,1,0
352,352,63358,1,8
288,352,63722,1,8
224,352,64085,1,0
160,352,64449,1,0
96,352,64813,1,8
32,352,65176,1,4
272,32,66812,5,8
368,32,67176,2,2,B|432:64,1,70
480,128,67721,2,8,B|400:128,2,70
480,64,68267,5,4
336,96,68994,1,0
480,128,69721,1,0
336,192,70448,2,0,B|480:192,2,140,8|8|4
480,256,71903,1,0
336,288,72630,1,0
480,320,73357,1,4
480,320,74084,5,0
336,288,74811,1,0
480,256,75539,1,0
336,192,76266,2,0,B|480:192,2,140,2|10|2
480,128,77720,1,0
352,96,78447,1,0
480,64,79175,1,4
256,192,114807,6,0,B|256:272,1,70
256,264,115170,1,0
256,262,115352,2,0,B|296:264,1,35
