osu file format v9

[General]
AudioFilename: NicoNicoDouga - Hankei 1m Zone.mp3
AudioLeadIn: 0
PreviewTime: 38986
Countdown: 1
SampleSet: Soft
StackLeniency: 0.7
Mode: 0
LetterboxInBreaks: 1

[Editor]
Bookmarks: 47670,52580,65640,73614
DistanceSpacing: 1.2
BeatDivisor: 4
GridSize: 8

[Metadata]
Title:Hankei 1M zone
Artist:NicoNicoDouga
Creator:matthewhln
Version:Miracle maker
Source:Higurashi no Naku Koro ni Rei
Tags:red zone Rika

[Difficulty]
HPDrainRate:5
CircleSize:5
OverallDifficulty:8
ApproachRate:9
SliderMultiplier:1.4
SliderTickRate:1

[Events]
//Background and Video events
0,0,"miraclemaker.jpg"
Video,0,"Hankei 1M zone.avi"
//Break Periods
2,91575,102154
//Storyboard Layer 0 (Background)
//Storyboard Layer 1 (Fail)
//Storyboard Layer 2 (Pass)
//Storyboard Layer 3 (Foreground)
//Storyboard Sound Samples
//Background Colour Transformations
3,100,163,162,255

[TimingPoints]
43543,363.592291843413,4,2,0,100,1,0
90076,-50,4,2,0,100,0,0
90894,-200,4,2,0,100,0,0
91258,-100,4,2,0,100,0,0
127803,-75,4,2,0,100,0,1
130592,-70,4,2,0,100,0,1
133664,-65,4,2,0,100,0,1
136577,-60,4,2,0,100,0,1
139531,-100,4,2,0,100,0,1
142803,-100,4,2,0,100,0,0

[Colours]
Combo1 : 0,128,192
Combo2 : 5,240,5
Combo3 : 5,5,240
Combo4 : 240,5,5
Combo5 : 255,128,0

[HitObjects]
256,192,43542,2,0,L|304:192,4,35
256,248,44088,2,0,L|304:248,1,35
296,304,44361,2,0,L|248:304,1,35
208,280,44633,1,0
184,264,44724,1,0
160,248,44815,1,0
128,168,44997,5,0
128,128,45088,1,0
128,88,45179,1,0
160,64,45270,1,0
200,64,45360,1,0
240,64,45451,1,0
280,64,45542,1,0
280,104,45633,1,0
320,104,45724,1,0
320,64,45815,1,0
360,64,45906,1,0
400,64,45997,1,0
400,104,46088,1,2
400,192,46269,1,2
328,184,46451,5,0
288,184,46542,1,0
288,224,46633,1,0
328,224,46724,1,0
328,264,46815,1,2
328,304,46906,2,0,B|328:352,2,35
288,304,47178,1,2
248,304,47269,2,0,B|248:344,2,35,0|0|2
312,24,47906,5,0
312,72,47997,1,0
312,112,48087,1,0
352,112,48178,1,0
392,112,48269,1,0
384,152,48360,1,0
376,192,48451,1,0
376,232,48542,1,0
384,272,48633,1,0
344,272,48724,1,0
304,272,48815,1,0
304,232,48905,1,0
304,192,48996,1,2
312,152,49087,1,0
312,112,49178,1,2
64,208,49360,5,2
64,168,49451,1,0
72,128,49542,1,0
96,96,49633,1,0
128,64,49724,1,2
168,48,49814,1,0
192,88,49905,1,0
168,128,49996,1,0
208,128,50087,1,0
280,88,50269,1,0
384,72,50451,1,0
352,104,50542,1,0
392,120,50633,1,0
456,320,50814,5,2
424,296,50905,1,0
392,272,50996,1,0
360,248,51087,1,2
320,224,51178,1,0
288,200,51269,1,0
320,176,51360,2,0,B|344:168|384:168,2,35,2|0|0
288,200,51632,1,0
264,232,51723,1,0
232,256,51814,1,0
272,272,51905,1,2
224,320,51996,6,2,B|200:352,1,35
184,264,52269,5,2
153,289,52360,2,0,B|122:314,2,35
127,259,52632,1,2
101,228,52723,1,0
71,254,52814,1,0
45,223,52905,1,0
19,192,52996,1,2
50,167,53087,1,0
24,136,53178,2,0,B|-1:105,2,35,0|0|2
50,167,53450,1,0
81,141,53541,1,0
106,172,53632,1,2
144,184,53723,5,0
178,163,53814,1,0
212,142,53905,1,0
191,108,53996,1,2
171,74,54087,1,0
137,94,54178,2,0,C|88:122,2,35,0|2|0
171,74,54450,1,0
205,53,54541,1,2
246,28,54632,2,0,C|294:0,1,35
294,46,54814,1,2
315,80,54905,1,2
281,101,54996,1,0
246,122,55087,1,2
192,192,55268,5,2
304,136,55541,1,2
264,136,55632,1,2
288,176,55723,1,0
288,216,55814,1,2
368,240,55996,1,2
400,160,56177,5,0
424,112,56268,1,2
448,144,56359,1,0
464,104,56450,1,0
488,136,56541,1,2
336,128,56814,5,2
168,128,57177,1,2
168,296,57541,1,2
336,296,57904,1,2
336,128,58268,1,2
168,128,58632,1,2
168,296,58995,1,2
336,296,59359,1,2
496,192,59541,5,8
456,176,59631,1,0
416,192,59722,1,0
376,176,59813,1,8
336,192,59904,1,0
296,176,59995,1,0
256,192,60086,1,8
216,176,60177,1,0
176,192,60268,1,0
136,176,60359,1,8
96,192,60450,1,0
56,176,60540,1,0
16,192,60631,1,8
256,192,60813,1,8
256,120,60995,5,8
296,136,61086,1,0
320,168,61177,1,0
320,208,61268,1,0
296,240,61359,1,8
256,264,61449,1,0
216,248,61540,1,0
192,216,61631,1,0
192,176,61722,1,8
216,144,61813,1,0
256,120,61904,1,0
256,80,61995,1,0
232,48,62086,1,8
272,48,62177,1,0
256,8,62268,1,8
256,8,62358,1,8
424,24,62631,5,2
424,192,62995,1,2
424,360,63358,1,2
256,360,63722,1,2
88,360,64085,1,2
88,192,64449,1,2
88,24,64813,1,2
256,24,65176,1,2
256,112,65358,5,0
288,136,65449,1,0
320,168,65540,1,0
352,200,65631,1,0
328,232,65722,1,0
296,256,65813,1,0
256,280,65903,1,0
224,256,65994,1,0
192,224,66085,1,0
160,200,66176,1,0
184,168,66267,1,0
216,136,66358,1,0
256,112,66449,1,0
256,192,66631,1,0
344,192,66812,1,0
176,192,67176,1,0
256,192,67358,1,0
256,360,67721,1,0
208,288,67903,1,0
304,288,68085,1,0
256,216,68267,5,4
344,216,68449,1,0
344,136,68630,1,0
256,136,68812,1,0
304,64,68994,1,4
344,56,69085,1,0
384,56,69176,1,0
424,64,69267,1,0
424,192,69539,5,0
384,192,69630,1,0
344,192,69721,1,4
256,192,69903,1,0
256,280,70085,1,0
168,280,70267,1,0
96,240,70448,1,4
72,208,70539,1,0
56,168,70630,1,0
56,128,70721,1,0
80,96,70812,1,4
112,72,70903,5,0
152,72,70994,1,0
184,96,71085,1,0
200,136,71176,1,4
256,72,71357,1,0
256,152,71539,1,0
256,72,71721,1,0
256,152,71903,1,4
256,192,71994,1,0
232,224,72084,1,0
272,224,72175,1,0
256,192,72448,5,0
184,232,72630,1,4
216,264,72721,1,0
256,272,72812,1,0
296,256,72903,1,0
328,232,72993,1,0
328,144,73175,1,0
256,104,73357,1,4
256,104,73448,1,0
256,104,73539,1,0
88,104,73812,5,0
104,144,73902,1,0
128,176,73993,1,0
168,192,74084,1,4
256,192,74266,1,0
168,192,74448,1,0
256,192,74630,1,0
344,192,74811,1,4
384,168,74902,1,0
408,136,74993,1,0
432,104,75084,1,0
336,104,75357,5,0
296,104,75448,1,0
296,144,75539,1,4
208,144,75720,1,0
208,232,75902,1,0
296,232,76084,1,0
296,312,76266,1,4
256,312,76357,1,0
216,312,76448,1,0
176,312,76539,1,0
136,312,76629,1,4
136,272,76720,5,0
168,248,76811,1,0
200,224,76902,1,0
232,200,76993,1,4
152,192,77175,1,0
152,104,77357,1,0
152,192,77538,1,0
224,152,77720,1,4
264,128,77811,1,0
304,104,77902,1,0
344,80,77993,1,0
256,56,78266,5,0
384,56,78447,1,4
416,32,78538,1,0
448,56,78629,1,0
416,80,78720,1,0
416,32,78811,1,0
416,120,78993,1,0
416,208,79175,1,4
376,232,79265,1,0
336,208,79356,1,0
72,336,79902,5,0
104,312,80084,1,0
136,288,80265,1,0
168,264,80447,1,0
184,256,80538,1,0
216,232,80720,1,0
256,208,80902,1,0
272,200,80993,1,0
312,176,81174,1,0
352,152,81356,1,0
392,128,81538,1,0
432,104,81720,1,0
448,96,81811,1,0
480,72,81992,1,0
488,80,82083,1,0
488,80,82265,1,0
488,80,82356,1,0
56,40,82810,5,0
88,64,82992,1,0
120,88,83174,1,0
152,112,83356,1,0
168,128,83447,1,0
200,152,83629,1,0
232,176,83810,1,0
248,192,83901,1,0
280,216,84083,1,0
312,240,84265,1,0
328,252,84356,1,0
344,264,84447,1,0
360,272,84538,1,0
376,280,84628,1,0
392,288,84719,1,0
408,296,84810,1,0
424,304,84901,1,0
440,312,84992,1,0
464,328,85083,1,0
464,328,85174,1,0
464,328,85265,1,0
464,328,85356,1,0
464,328,85447,1,0
168,328,85719,5,0
256,328,85901,1,0
344,328,86083,1,0
408,272,86265,2,0,C|440:240,1,35
496,192,86537,1,0
432,136,86719,2,0,C|407:111,1,35
320,120,86992,1,0
232,120,87174,2,0,C|176:120,2,35
232,160,87446,2,0,C|232:208,1,35
192,192,87628,2,0,C|128:192,1,35
112,192,87810,1,0
32,168,87992,2,0,C|64:136,1,35
120,80,88264,2,0,C|168:64,1,35
232,48,88537,2,0,C|272:48,1,35
48,192,90809,5,4
464,192,91082,1,4
256,192,91355,1,4
256,192,102899,12,4,103172
256,192,103626,12,4,103899
256,192,104353,12,4,104626
256,192,105080,12,4,105353
256,192,105444,12,4,105717
256,192,105808,12,4,106080
256,192,106535,12,4,106808
256,192,107262,12,4,107535
256,192,107989,12,4,108262
256,192,108716,12,4,108989
256,192,109444,12,4,109716
256,192,110171,12,4,110443
256,192,110898,12,4,111171
256,192,111262,12,4,111534
256,192,111625,12,4,111898
256,192,112352,12,4,112625
256,192,113080,12,4,113352
256,192,113807,12,4,114079
48,160,114807,5,0
112,224,114988,1,0
168,160,115170,1,2
168,72,115352,1,0
168,112,115443,1,0
96,152,115625,1,2
48,88,115806,1,0
72,120,115897,1,0
144,80,116079,1,2
472,128,117715,5,0
472,40,117897,1,0
384,40,118079,1,2
384,128,118261,1,0
424,128,118352,1,0
344,128,118533,1,2
344,216,118715,1,0
344,176,118806,1,2
344,88,118988,1,0
288,128,120624,5,0
192,248,120806,1,0
256,192,120988,1,2
344,192,121169,1,0
304,192,121260,1,0
216,192,121442,1,2
256,120,121624,1,0
256,160,121715,1,2
256,248,121897,1,0
32,112,122078,5,0
32,152,122169,1,2
32,192,122260,1,0
72,192,122351,1,0
112,192,122442,1,0
152,192,122533,1,0
192,192,122624,1,0
232,192,122715,1,0
320,192,122897,1,0
280,192,122987,1,2
368,192,123169,1,2
408,192,123260,1,0
496,192,123442,1,0
456,192,123533,1,2
256,192,127896,5,0
288,240,127987,1,0
344,240,128078,1,0
368,192,128169,1,0
344,144,128260,1,0
312,192,128350,1,0
288,144,128441,1,0
256,96,128532,1,0
224,144,128623,1,0
256,192,128714,1,0
288,240,128805,1,0
256,288,128896,1,0
224,240,128987,1,0
256,192,129078,1,0
200,192,129168,1,0
168,144,129259,1,0
224,144,129350,1,0
336,144,129532,5,0
304,192,129623,1,0
280,240,129714,1,0
248,288,129805,1,0
280,144,129896,1,0
248,192,129987,1,0
224,240,130077,1,0
192,288,130168,1,0
224,144,130259,1,0
192,192,130350,1,0
160,240,130441,1,0
136,288,130532,1,0
352,280,130623,5,0
304,264,130714,1,0
352,224,130805,1,0
304,208,130896,1,0
352,96,130986,1,0
304,112,131077,1,0
352,152,131168,1,0
304,168,131259,1,0
160,96,131350,1,0
208,112,131441,1,0
160,152,131532,1,0
208,168,131623,1,0
160,280,131714,1,0
208,264,131805,1,0
160,224,131895,1,0
208,208,131986,1,0
272,192,132077,1,0
240,192,132168,1,0
256,232,132259,5,0
208,280,132350,1,0
256,296,132441,1,0
304,280,132532,1,0
200,232,132623,1,0
256,240,132714,1,0
312,232,132804,1,0
184,184,132895,1,0
256,184,132986,1,0
328,184,133077,1,0
168,136,133168,1,0
256,128,133259,1,0
344,136,133350,1,0
160,88,133441,1,0
256,72,133532,1,0
352,88,133622,1,0
288,136,133713,5,0
224,152,133804,1,0
288,160,133895,1,0
224,176,133986,1,0
288,184,134077,1,0
224,200,134168,1,0
288,208,134259,1,0
256,192,134350,5,0
240,192,134441,1,0
272,192,134531,1,0
224,192,134622,1,0
288,192,134713,1,0
208,192,134804,1,0
304,192,134895,1,0
192,192,134986,1,0
320,192,135077,1,0
216,240,135168,5,0
256,192,135259,1,0
296,240,135350,1,0
256,192,135440,1,0
208,152,135531,1,0
144,152,135622,1,0
96,104,135713,1,0
144,56,135804,1,0
208,56,135895,1,0
256,104,135986,1,0
304,152,136077,1,0
368,152,136168,1,0
416,104,136259,1,0
368,56,136349,1,0
304,56,136440,1,0
256,104,136531,1,0
256,176,136622,5,0
184,184,136713,1,0
256,192,136804,1,0
328,200,136895,1,0
400,208,136986,1,0
328,216,137077,1,0
256,224,137168,1,0
328,232,137258,1,0
256,240,137349,1,0
184,248,137440,1,0
112,256,137531,1,0
184,264,137622,1,0
256,272,137713,1,0
328,280,137804,1,0
400,288,137895,1,0
328,296,137986,1,0
256,304,138076,5,0
194,285,138167,1,0
133,266,138258,1,0
160,200,138349,1,0
180,138,138440,1,0
200,80,138531,1,0
272,96,138622,1,0
334,115,138713,1,0
395,134,138804,1,0
368,200,138895,1,0
348,262,138985,1,0
320,320,139076,1,0
288,264,139167,1,0
264,320,139258,1,0
224,264,139349,1,0
200,320,139440,1,0
120,304,139531,5,4
392,304,139804,1,4
120,80,140076,1,4
392,80,140440,1,4
392,304,140622,1,4
120,304,140803,1,4
392,80,140985,1,4
120,304,141258,1,4
304,336,141531,1,4
392,304,141894,1,4
120,80,142076,1,4
448,224,142258,1,6
448,256,142531,1,6
