osu file format v5

[General]
AudioFilename: faruconpan.mp3
AudioLeadIn: 956
PreviewTime: -1
Countdown: 1
SampleSet: Normal
StackLeniency: 0.7
Mode: 0
LetterboxInBreaks: 1

[Metadata]
Title:Farucon Pan!
Artist:NicoNicoDouga
Creator:jamiro24
Version:Jam STYLE EXTREME ROCK
Source:
Tags:

[Difficulty]
HPDrainRate:4
CircleSize:6
OverallDifficulty:5
SliderMultiplier:1.9
SliderTickRate:1

[Events]
//Background and Video events
0,0,"ssbm.jpg"
1,324,"faruconpan.avi"
//Break Periods
2,34455,37488
//Storyboard Layer 0 (Background)
//Storyboard Layer 1 (Failing)
//Storyboard Layer 2 (Passing)
//Storyboard Layer 3 (Foreground)
//Storyboard Sound Samples
//Background Colour Transformations
3,100,163,162,255

[TimingPoints]
3186,293.110319488818,4,1,0,100

[Colours]
Combo1 : 255,0,0
Combo2 : 255,132,179
Combo3 : 244,233,0
Combo4 : 75,12,154

[HitObjects]
96,64,694,1,0
128,96,987,1,0
128,96,1060,1,0
192,96,1317,1,0
224,64,1610,1,0
224,64,1757,1,0
224,96,1903,1,0
192,128,2086,1,0
224,128,2160,1,0
256,128,2270,1,0
192,224,2563,1,0
224,224,2709,1,0
256,224,2892,1,0
256,224,2929,1,0
256,224,2966,1,0
96,64,3259,1,0
96,96,3442,1,0
96,96,3552,1,0
96,128,3698,1,0
96,128,3845,1,0
96,160,4028,1,0
96,160,4101,1,0
128,160,4175,1,0
128,160,4248,1,0
128,192,4321,1,0
352,160,4504,1,0
352,192,4578,1,0
352,192,4651,1,0
352,224,4834,1,0
352,224,4871,1,0
320,224,4981,1,0
288,224,5127,1,0
64,96,5787,1,0
96,96,5860,1,0
128,96,5933,1,0
128,160,6117,1,0
64,160,6190,1,0
64,160,6263,1,0
96,160,6410,1,0
96,192,6483,1,0
96,224,6556,1,0
160,224,6739,1,0
160,192,6813,1,0
160,192,6886,1,0
192,192,7033,1,0
192,160,7399,1,0
192,128,7692,1,0
224,128,7765,1,0
224,128,7802,1,0
224,128,7839,1,0
96,96,8315,1,0
128,96,8388,1,0
128,96,8498,1,0
128,128,8645,1,0
96,128,8718,1,0
96,128,8828,1,0
96,160,8974,1,0
128,160,9084,1,0
128,160,9121,1,0
128,192,9304,1,0
96,192,9377,1,0
96,192,9451,1,0
64,192,9634,1,0
96,192,9780,1,0
96,192,9890,1,0
128,192,10000,1,0
128,192,10037,1,0
160,192,10220,1,0
160,96,10880,1,0
192,160,10990,1,0
192,96,11063,1,0
256,96,11209,1,0
256,160,11283,1,0
288,96,11356,1,0
224,160,11539,1,0
224,160,11612,1,0
224,128,11649,1,0
192,160,11722,1,0
192,160,11796,1,0
192,160,11832,1,0
224,64,12199,1,0
192,64,12492,1,0
160,64,12785,1,0
160,64,12822,1,0
64,32,13444,1,0
96,64,13628,1,0
32,64,13774,1,0
32,96,14067,1,0
64,128,14214,1,0
96,96,14397,1,0
128,128,14727,1,0
128,160,14873,1,0
160,160,15020,1,0
160,192,15203,1,0
192,192,15386,1,0
224,64,15972,1,0
224,96,16082,1,0
256,96,16192,1,0
256,64,16266,1,0
288,64,16375,1,0
288,96,16449,1,0
288,96,16522,1,0
288,128,16632,1,0
256,128,16705,1,0
224,128,16815,1,0
224,160,16998,1,0
128,96,17291,1,0
128,160,17475,1,0
160,160,17621,1,0
192,160,17768,1,0
224,160,17914,1,0
224,192,18097,1,0
192,192,18171,1,0
160,192,18281,1,0
224,32,18537,1,0
320,64,18720,1,0
288,96,18867,1,0
256,96,19013,1,0
256,128,19160,1,0
288,128,19343,1,0
320,128,19490,1,0
96,32,19820,1,0
128,64,19966,1,0
160,96,20149,1,0
128,128,20296,1,0
96,160,20442,1,0
128,192,20626,1,0
160,224,20772,1,0
192,192,20955,1,0
224,160,21102,1,0
192,128,21285,1,0
160,96,21468,1,0
192,64,21725,1,0
224,32,22054,1,0
128,32,22421,1,0
128,64,22714,1,0
128,96,23007,1,0
224,64,23667,1,0
256,96,23813,1,0
224,128,23960,1,0
256,160,24143,1,0
224,192,24289,1,0
256,224,24473,1,0
224,256,24619,1,0
256,288,24802,1,0
224,288,24949,1,0
224,320,25095,1,0
256,320,25242,1,0
256,288,25425,1,0
224,288,25572,1,0
224,256,25718,1,0
256,224,25865,1,0
224,192,26011,1,0
256,160,26195,1,0
224,128,26341,1,0
256,96,26524,1,0
224,64,26671,1,0
192,96,26854,1,0
160,64,27037,1,0
128,96,27184,1,0
96,64,27330,1,0
96,96,27514,1,0
96,128,27660,1,0
128,128,27807,1,0
160,128,27953,1,0
160,128,28027,1,0
160,128,28137,1,0
224,192,28796,1,0
288,192,29309,1,0
288,192,29456,1,0
288,128,29749,1,0
256,128,29895,1,0
256,160,30042,1,0
224,192,30371,1,0
224,160,30701,1,0
192,160,30775,1,0
192,160,30811,1,0
192,160,30848,1,0
192,192,31324,1,0
224,192,31471,1,0
224,160,31581,1,0
256,160,31690,1,0
256,192,31800,1,0
288,192,32313,1,0
288,160,32423,1,0
288,128,32606,1,0
320,128,32753,1,0
352,160,32936,1,0
352,96,33229,1,0
384,128,33413,1,0
384,96,33559,1,0
384,64,33706,1,0
352,64,33852,1,0
320,32,33999,1,0
288,64,34255,1,0
192,128,38688,5,0
224,160,38872,1,0
256,128,39018,1,0
288,160,39165,1,0
256,192,39311,1,0
224,192,39458,1,0
192,192,39641,1,0
160,160,39824,1,0
192,128,39934,1,0
192,96,40117,1,0
192,64,40264,1,0
160,64,40411,1,0
128,96,40594,1,0
96,64,40777,1,0
64,96,40960,1,0
64,128,41253,1,0
96,160,41510,1,0
32,160,41730,1,0
64,192,41913,1,0
96,224,42059,1,0
32,224,42206,1,0
64,256,42352,1,0
96,288,42536,1,0
32,288,42719,1,0
64,320,42865,1,0
96,320,43012,1,0
96,352,43158,1,0
128,352,43305,1,0
128,320,43452,1,0
160,288,43525,1,0
192,256,43635,1,0
192,224,43781,1,0
192,192,43818,1,0
160,192,43891,1,0
128,224,43928,1,0
192,128,44111,1,0
256,128,44184,1,0
256,128,44221,1,0
256,128,44258,1,0
256,192,44367,1,0
256,192,44441,1,0
192,192,44551,1,0
160,192,44734,1,0
160,160,44844,1,0
160,128,44917,1,0
160,96,44990,1,0
160,96,45064,1,0
128,128,45210,1,0
96,128,45393,1,0
96,160,45467,1,0
128,160,45540,1,0
96,192,45613,1,0
96,192,45686,1,0
96,224,45833,1,0
128,192,46016,1,0
160,192,46126,1,0
160,224,46199,1,0
128,224,46273,1,0
128,256,46346,1,0
160,256,46419,1,0
192,256,46493,1,0
192,224,46566,1,0
192,192,46639,1,0
192,160,46712,1,0
160,160,46786,1,0
160,128,46896,1,0
224,64,47005,1,0
224,96,47042,1,0
224,96,47152,1,0
288,96,47299,1,0
288,64,47409,1,0
288,64,47482,1,0
224,96,47592,1,0
256,128,47665,1,0
256,160,47775,1,0
256,192,47921,1,0
256,224,48031,1,0
256,256,48105,1,0
224,256,48251,1,0
192,256,48324,1,0
192,256,48398,1,0
128,256,48581,1,0
96,224,48691,1,0
96,224,48728,1,0
128,192,48874,1,0
160,160,48947,1,0
160,160,49057,1,0
96,128,49204,1,0
64,160,49277,1,0
32,192,49387,1,0
32,288,49534,1,0
96,288,49607,1,0
96,288,49680,1,0
128,256,49863,1,0
128,224,49937,1,0
128,192,50010,1,0
128,160,50083,1,0
128,160,50156,1,0
160,128,50230,1,0
192,128,50486,1,0
192,160,50559,1,0
192,192,50669,1,0
192,224,50816,1,0
224,224,50926,1,0
224,160,51109,1,0
256,192,51439,1,0
256,128,51769,1,0
256,160,51842,1,0
256,192,51915,1,0
256,224,51988,1,0
256,256,52098,1,0
224,288,52245,1,0
224,256,52428,1,0
224,224,52465,1,0
224,192,52575,1,0
224,160,52648,1,0
224,128,52721,1,0
192,128,52868,1,0
192,160,53014,1,0
192,224,53197,1,0
192,224,53234,1,0
192,224,53307,1,0
128,224,53491,1,0
128,128,53637,1,0
96,160,53747,1,0
96,160,53784,1,0
96,160,53820,1,0
128,160,53967,1,0
160,160,54077,1,0
160,160,54113,1,0
160,160,54150,1,0
128,192,54297,1,0
160,192,54370,1,0
192,192,54480,1,0
96,192,54663,1,0
96,192,54736,1,0
96,192,54810,1,0
64,192,54919,1,0
64,224,54993,1,0
96,224,55103,1,0
160,256,55249,1,0
160,256,55322,1,0
128,256,55432,1,0
96,288,55579,1,0
128,288,55689,1,0
160,288,55762,1,0
192,224,55909,1,0
192,192,55982,1,0
192,160,56092,1,0
224,160,56238,1,0
256,160,56312,1,0
288,160,56422,1,0
352,64,56568,1,0
352,96,56641,1,0
352,128,56715,1,0
384,192,56825,1,0
352,192,56898,1,0
320,192,56971,1,0
288,256,57154,1,0
352,256,57228,1,0
352,288,57338,1,0
320,288,57411,1,0
320,256,57484,1,0
288,256,57557,1,0
288,256,57631,1,0
256,256,57741,1,0
256,288,57814,1,0
288,288,57887,1,0
288,288,57960,1,0
320,320,58070,1,0
320,320,58144,1,0
352,320,58217,1,0
384,288,58290,1,0
384,288,58364,1,0
352,224,58473,1,0
320,224,58547,1,0
288,224,58620,1,0
224,224,58767,1,0
96,96,59243,1,0
128,96,59316,1,0
160,96,59389,1,0
192,96,59463,1,0
192,96,59536,1,0
192,128,59609,1,0
192,160,59683,1,0
192,192,60049,1,0
192,224,60122,1,0
192,256,60232,1,0
160,256,60379,1,0
128,256,60525,1,0
96,256,60672,1,0
