osu file format v4

[General]
AudioFilename: faruconpan.mp3
AudioLeadIn: 956
AudioHash: 1766985750dd0fd187bfc512fc8a6ce1
PreviewTime: -1
SampleSet: Normal

[Metadata]
Title:Farucon Pan!
Artist:NicoNicoDouga
Creator:awp
Version:Hard

[Difficulty]
HPDrainRate:5
CircleSize:6
OverallDifficulty:5
SliderMultiplier: 1.4
SliderTickRate: 2

[Events]
1,0,"ssbm.jpg"
1,300,"faruconpan.avi"
2,33713,37744
3,0,163,162,255

[TimingPoints]
3162,319.488817891374,4,1,0

[Colours]
Combo1 : 255,0,0
Combo2 : 255,132,179
Combo3 : 244,233,0
Combo4 : 75,12,154

[HitObjects]
374,173,606,2,0,B|374:173|336:112|240:80|144:112|112:211|112:224,2,280
256,192,2523,1,0
448,48,3162,6,0,B|448:48|96:48,1,280
96,240,4439,1,0
176,288,4759,1,0
256,240,5078,1,0
256,48,5717,5,0
256,48,5877,1,0
256,48,6037,1,0
256,48,6197,1,0
256,96,6356,1,0
256,96,6516,1,0
256,96,6676,1,0
256,96,6836,1,0
256,128,6995,2,0,B|256:128|256:304,2,140
256,320,8273,6,0,B|256:320|416:240|352:96|232:76,1,280
416,192,9551,1,0
320,192,9871,1,0
224,192,10190,1,0
224,96,10510,6,0,B|224:96|160:96,1,70
96,96,10829,1,0
32,176,11149,1,0
96,240,11468,1,0
32,320,11788,1,0
128,320,12107,1,0
224,320,12427,1,0
128,320,12746,1,0
256,192,13385,6,0,B|256:192|256:16,2,140
448,176,14663,1,0
352,176,14983,1,0
448,176,15302,1,0
256,192,15941,12,0,16900
352,192,17219,2,0,C|352:192|327:189|368:208|384:192|352:160|317:212,1,140
240,192,17858,1,0
48,192,18497,5,0
320,192,19136,1,0
144,288,19775,1,0
208,352,20094,1,0
272,288,20414,1,0
336,352,20733,1,0
256,192,21053,12,0,22730
208,192,23609,1,0
304,192,23928,5,0
208,224,24248,5,0
304,224,24567,5,0
208,256,24887,5,0
304,256,25206,5,0
256,336,25526,1,0
256,288,25685,1,0
256,240,25845,1,0
208,160,26165,5,0
304,160,26484,5,0
208,192,26804,5,0
304,192,27123,5,0
256,272,27443,6,0,C|256:272|256:240,5,35
256,160,28082,2,0,C|256:160|256:128,1,35
256,288,28721,5,0
288,192,29200,1,0
336,192,29360,1,0
416,240,29679,2,0,C|416:240|384:240,2,70
336,192,30318,1,0
432,192,30638,1,0
256,192,31277,12,0,32554
256,192,32874,1,0
256,192,33193,1,0
256,192,33513,1,0
96,80,38944,6,0,C|96:80|208:48|336:112,1,210
352,128,39583,1,0
400,208,39903,1,0
368,256,40062,1,0
320,224,40222,5,0
256,272,40542,1,0
192,224,40861,2,0,C|192:224|127:196|128:288,1,140
80,192,41500,5,0
112,160,41660,1,0
144,192,41820,1,0
176,160,41979,1,0
208,192,42139,1,0
240,160,42299,1,0
272,192,42459,1,0
304,224,42618,1,0
336,256,42778,2,0,C|336:256|400:240|432:160|320:96,1,280
240,96,43737,1,0
320,64,44056,5,0
352,96,44216,1,0
320,112,44376,1,0
352,144,44535,1,0
320,160,44695,1,0
352,192,44855,1,0
320,208,45015,1,0
352,240,45174,1,0
320,256,45334,1,0
352,288,45494,1,0
320,304,45654,1,0
352,336,45813,1,0
320,352,45973,2,0,C|320:352|240:336|192:272|176:176|192:128,1,280
208,128,46772,5,0
176,96,46931,1,0
160,128,47091,1,0
128,96,47251,1,0
112,128,47411,1,0
80,96,47570,1,0
64,128,47730,1,0
32,96,47890,2,0,B|32:96|16:128|64:240|144:256|176:240,1,280
256,96,49008,5,0
288,128,49168,1,0
256,144,49328,1,0
288,176,49487,1,0
256,192,49647,1,0
288,224,49807,1,0
256,240,49967,1,0
288,272,50126,1,0
240,288,50286,1,0
272,320,50446,2,0,B|272:320|240:336|224:320,4,70
352,320,51404,1,0
416,272,51724,5,0
448,240,51884,1,0
400,224,52043,1,0
432,192,52203,1,0
400,176,52363,1,0
432,144,52523,1,0
400,128,52682,1,0
432,96,52842,1,0
400,80,53002,2,0,B|400:80|400:48|448:48,4,70
320,112,54280,6,0,B|320:112|160:112,1,140
128,176,54919,2,0,B|128:176|320:176,1,140
320,240,55558,2,0,B|320:240|128:240,1,140
128,304,56197,2,0,B|128:304|320:304,1,140
352,304,56836,6,0,B|352:304|432:240,1,70
432,240,57155,1,0
432,240,57315,1,0
432,192,57475,2,0,B|432:192|368:128,1,70
352,112,57794,1,0
352,112,57954,1,0
320,96,58114,6,0,B|320:96|288:128,1,70
240,176,58433,1,0
240,176,58593,1,0
208,208,58753,1,0
80,112,59392,5,0
48,144,59551,1,0
80,160,59711,1,0
48,192,59871,1,0
80,208,60031,1,0
48,240,60190,1,0
96,256,60350,2,0,B|96:256|128:288,1,70
192,304,60669,5,0
224,272,60829,1,0
240,304,60989,1,0
256,272,61149,1,0
288,304,61308,2,0,B|288:304|320:272,1,70
384,256,61628,2,0,B|384:256|336:304,1,70
256,192,61947,12,0,63864
