osu file format v4

[General]
AudioFilename: faruconpan.mp3
AudioLeadIn: 0
AudioHash: 1766985750dd0fd187bfc512fc8a6ce1
PreviewTime: -1
SampleSet: Normal
EditorBookmarks: 38629,43102,61951,63868

[Metadata]
Title:Farucon Pan!
Artist:NicoNicoDouga
Creator:awp
Version:Easy

[Difficulty]
HPDrainRate:2
CircleSize:3
OverallDifficulty:3
SliderMultiplier: 1
SliderTickRate: 2

[Events]
//Background and Video events
0,-1,"ssbm.jpg"
1,300,"faruconpan.avi"
//Break Periods
2,38504,42616
//Storyboard Layer 0 (Background)
//Storyboard Layer 1 (Failing)
//Storyboard Layer 2 (Passing)
//Storyboard Layer 3 (Foreground)
//Storyboard Sound Samples
//Background Colour Transformations
3,0,163,162,255

[TimingPoints]
3162,319.488817891374,4,1,0

[Colours]
Combo1 : 255,0,0
Combo2 : 255,132,179
Combo3 : 244,233,0
Combo4 : 75,12,154

[HitObjects]
432,192,3161,5,0
304,192,3800,1,0
176,192,4439,2,0,B|176:192|128:112|96:112|18:202,1,200
64,304,5717,6,0,C|64:304|64:288|64:320|80:288|48:320|80:304|48:304|67:318,1,200
176,304,6995,2,0,B|176:304|384:304,1,200
352,192,8273,5,0
224,192,8912,1,0
144,288,9551,2,0,B|144:288|352:288,1,200
400,288,10510,6,0,C|400:288|448:288,2,50
400,224,11149,2,0,C|400:224|400:112,5,100
256,192,13385,5,0
128,192,14024,1,0
192,288,14663,2,0,C|192:288|222:321|272:272,2,100
256,192,15941,5,0
320,192,16261,1,0
384,192,16580,1,0
384,256,16900,1,0
320,256,17219,1,0
256,256,17538,1,0
192,256,17858,1,0
192,128,18497,5,0
304,128,19136,1,0
256,16,19775,2,0,C|256:16|256:320,1,300
256,192,21053,12,0,22331
336,192,23609,6,0,C|336:192|112:192,2,200
336,256,25206,1,0
400,256,25526,1,0
400,192,25845,1,0
400,128,26165,2,0,C|400:128|320:128,1,100
240,128,26804,2,0,C|240:128|144:128,1,100
144,192,27443,2,0,B|144:192|171:192,8,25
256,240,28721,5,0
256,144,29200,2,0,C|256:144|192:144,1,50
144,144,29679,2,0,C|144:144|144:176,2,50
144,80,30318,1,0
80,80,30638,1,0
80,192,31277,5,0
80,256,31596,2,0,C|80:256|144:256,2,50
80,320,32235,2,0,C|80:320|144:320,1,50
130,320,32554,2,0,C|130:320|256:320|256:208|336:208,1,300
288,192,33832,5,0
288,272,34152,1,0
368,272,34471,1,0
368,192,34791,1,0
448,192,35110,1,0
448,272,35430,1,0
448,352,35749,1,0
368,352,36069,1,0
288,352,36388,1,0
288,272,36708,1,0
288,192,37027,1,0
288,112,37347,1,0
368,112,37666,2,0,B|368:112|377:35|272:32,2,100
256,64,44056,5,0
256,176,44695,1,0
256,288,45334,1,0
304,240,45654,1,0
352,288,45973,1,0
416,192,46612,5,0
416,64,47251,1,0
288,64,47890,1,0
240,112,48209,1,0
192,64,48529,1,0
80,112,49168,5,0
80,224,49807,1,0
176,304,50446,1,0
224,256,50765,1,0
272,304,51085,1,0
320,256,51404,1,0
368,304,51724,5,0
368,176,52363,1,0
256,112,53002,2,0,C|256:112|213:147|256:192,2,100
144,160,54280,6,0,B|144:160|368:160,1,200
352,272,55558,2,0,C|352:272|144:272,1,200
192,160,56836,5,0
320,160,57475,1,0
160,112,58114,2,0,C|160:112|384:112,1,200
256,192,59072,12,0,60669
288,112,61947,2,0,L|288:112|200:129|200:179|113:188|155:195|205:223|241:259|274:207|328:205|321:156|384:144,1,600
