osu file format v9

[General]
AudioFilename: Courage to tell a lie.mp3
AudioLeadIn: 0
PreviewTime: 20249
Countdown: 0
SampleSet: Soft
StackLeniency: 0.7
Mode: 0
LetterboxInBreaks: 1

[Editor]
Bookmarks: 39067,44249,55703,58431,79431,81340,107522
DistanceSpacing: 0.9
BeatDivisor: 8
GridSize: 4

[Metadata]
Title:Courage to tell a lie
Artist:NicoNicoDouga
Creator:Mafiamaster
Version:Insane
Source:
Tags:Wise-ONE DaxMasterix Sanjenin Nagi -U DoKoLP yeahyeahyeahhh bakemonogatari eminem rihanna love the way you lie

[Difficulty]
HPDrainRate:8
CircleSize:4
OverallDifficulty:8
ApproachRate:9
SliderMultiplier:3.19999990463257
SliderTickRate:1

[Events]
//Background and Video events
Video,0,"Courage.avi"
0,0,"BG.jpg"
//Break Periods
//Storyboard Layer 0 (Background)
//Storyboard Layer 1 (Fail)
//Storyboard Layer 2 (Pass)
//Storyboard Layer 3 (Foreground)
//Storyboard Sound Samples
//Background Colour Transformations
3,100,0,0,0

[TimingPoints]
18613,545.454545454546,4,2,0,50,1,0
20726,-100,4,2,1,70,0,0
54476,-100,4,2,1,40,0,0
55703,-100,4,2,1,70,0,1
73158,-100,4,2,1,70,0,0
80113,-100,4,2,1,60,0,0
81340,-100,4,2,1,40,0,0
81885,-100,4,2,1,70,0,0
100158,-100,4,2,1,60,0,0
101794,-100,4,2,1,50,0,0
103294,-100,4,2,1,40,0,0
105340,-100,4,2,1,30,0,0
106431,-100,4,2,1,20,0,0
107113,-100,4,2,1,10,0,0

[Colours]
Combo1 : 242,146,0
Combo2 : 255,128,192
Combo3 : 121,0,121
Combo4 : 0,200,0

[HitObjects]
256,24,18613,5,2
256,40,18749,1,0
256,56,18885,2,0,B|256:144,1,79.9999976158142
192,176,19158,6,0,B|152:199|152:241,1,79.9999976158142,2|0
359,241,19431,2,0,B|359:199|320:176,1,79.9999976158142,2|2
256,240,19703,2,0,B|256:320,3,79.9999976158142,2|2|2|2
152,320,20249,6,0,B|152:361|191:384,1,79.9999976158142,2|0
320,384,20522,2,0,B|359:361|360:320,1,79.9999976158142,2|0
456,272,20794,6,0,B|512:240|512:240|520:192|464:160,1,159.999995231628,6|0
408,120,21203,1,2
336,136,21340,2,0,B|320:96|336:56,2,79.9999976158142,8|0|0
368,200,21749,1,8
336,264,21885,2,0,B|296:280|256:264,1,79.9999976158142
336,264,22294,6,0,B|312:296|256:296,1,79.9999976158142,0|8
192,296,22567,1,0
128,264,22703,1,0
96,200,22840,1,0
104,128,22976,6,0,B|120:72|120:72|160:40|224:48,1,159.999995231628,2|0
288,64,23385,1,2
344,16,23522,2,0,B|382:0|422:16,1,79.9999976158142,0|0
488,48,23794,2,0,B|504:88|488:126,1,79.9999976158142,0|8
424,168,24067,2,0,B|409:130|424:90,1,79.9999976158142
492,200,24340,2,0,B|476:256|476:256|436:288|372:280,1,159.999995231628,0|8
312,256,24749,1,0
284,324,24885,2,0,B|240:308|236:252,1,79.9999976158142
248,192,25158,6,0,B|160:160|160:224|72:192,1,159.999995231628,2|0
32,156,25567,1,2
24,84,25703,2,0,B|24:36|80:20,2,79.9999976158142,8|0|0
92,112,26113,1,8
160,84,26249,2,0,B|188:48|240:56,1,79.9999976158142
300,80,26522,1,0
368,52,26658,2,0,B|384:92|368:132,1,79.9999976158142,0|8
368,52,27067,6,0,B|384:92|416:124,1,79.9999976158142,0|0
480,144,27340,1,2
456,212,27476,1,0
432,280,27613,2,0,B|383:312|383:312|335:312|303:257,1,159.999995231628,0|8
256,312,28022,2,0,B|180:356|104:312,1,159.999995231628
68,248,28431,6,0,B|48:208|6:200,1,79.9999976158142
144,220,28703,2,0,B|156:176|120:136,1,79.9999976158142,0|0
224,236,28976,2,0,B|276:224|288:168,2,79.9999976158142,8|0|0
212,164,29385,1,0
268,116,29522,6,0,B|288:76|330:68,1,79.9999976158142,6|0
400,68,29794,2,0,B|442:76|462:116,2,79.9999976158142,0|2|8
364,132,30203,1,0
220,24,30476,5,8
148,40,30613,2,0,B|100:52|68:16,2,79.9999976158142,0|0|0
200,92,31022,1,0
132,112,31158,2,0,B|84:100|52:136,2,79.9999976158142,8|0|0
108,180,31567,1,0
168,220,31703,6,0,B|240:212|224:316|312:300,1,159.999995231628,2|0
340,360,32113,1,2
412,376,32249,2,0,B|456:368|474:331,1,79.9999976158142,8|0
474,258,32522,2,0,B|456:221|412:213,2,79.9999976158142,0|8|0
408,284,32931,1,0
348,244,33067,1,0
352,172,33203,2,0,B|375:140|422:140,1,79.9999976158142,0|8
351,172,33613,6,0,B|390:156|428:171,1,79.9999976158142
460,236,33885,2,0,B|388:300|316:236,1,159.999995231628,2|0
276,176,34294,1,2
260,104,34431,2,0,B|236:72|195:58,2,79.9999976158142,8|0|0
204,152,34840,2,0,B|180:183|139:197,1,79.9999976158142,8|0
72,168,35113,1,0
88,96,35249,1,0
0,208,35522,5,8
32,272,35658,2,0,B|47:311|84:329,1,79.9999976158142
152,360,35931,1,0
224,336,36067,2,0,B|280:360|280:360|344:344|352:280,1,159.999995231628,2|0
416,264,36476,1,2
360,216,36613,6,0,B|367:169|324:151,2,79.9999976158142,8|0|0
256,120,37022,1,8
186,151,37158,2,0,B|145:169|152:216,1,79.9999976158142,0|0
256,304,37431,1,0
292,240,37567,1,0
220,240,37703,1,8
256,40,37976,5,0
184,40,38113,1,0
152,104,38249,2,0,B|128:143|86:143,1,79.9999976158142,6|0
16,136,38522,2,0,B|55:159|55:201,1,79.9999976158142,0|2
56,272,38794,2,0,B|79:232|121:232,1,79.9999976158142,8|0
188,264,39067,6,0,B|165:304|123:304,2,79.9999976158142,0|8|0
236,208,39476,1,0
188,152,39613,2,0,B|237:120|237:120|285:120|317:175,1,159.999995231628,0|8
356,236,40022,1,0
420,204,40158,2,0,B|460:212|500:204,1,79.9999976158142
492,132,40431,2,0,B|484:92|492:52,2,79.9999976158142,2|0|0
420,132,40840,5,2
416,60,40976,1,8
348,36,41113,2,0,B|348:80|308:100,1,79.9999976158142,0|0
244,132,41385,1,8
172,116,41522,1,0
132,176,41658,1,0
60,160,41794,2,0,B|28:182|28:229,2,79.9999976158142,0|0|8
60,160,42340,6,0,B|52:199|59:239,1,79.9999976158142
120,280,42613,2,0,B|144:240|204:248,2,79.9999976158142,2|0|0
92,348,43022,1,0
164,340,43158,2,0,B|188:380|248:372,1,79.9999976158142,8|0
304,356,43431,1,0
340,292,43567,1,8
288,240,43703,2,0,B|272:200|288:160,2,79.9999976158142,0|0|0
360,220,44113,1,0
412,272,44249,6,0,B|484:224|484:224|484:144|380:128,1,239.999992847443,8|0
360,60,44794,2,0,B|296:16|204:28,1,159.999995231628,2|0
136,40,45203,1,2
72,76,45340,2,0,B|32:84|8:124,2,79.9999976158142,8|0|0
112,136,45749,1,8
176,100,45885,2,0,B|216:108|240:148,2,79.9999976158142
172,172,46294,2,0,B|204:204|203:243,1,79.9999976158142,0|8
172,172,46703,6,0,B|180:212|172:252,1,79.9999976158142
152,320,46976,1,6
80,336,47113,1,0
8,320,47249,2,0,B|-56:248|8:176,1,159.999995231628,0|8
60,128,47658,1,0
132,132,47794,2,0,B|132:176|184:204,2,79.9999976158142,0|8|0
100,68,48203,1,0
172,72,48340,2,0,B|220:72|252:32,1,79.9999976158142,0|0
212,136,48613,6,0,B|292:112|372:136,1,159.999995231628,8|0
404,200,49022,1,0
420,272,49158,2,0,B|419:311|388:343,2,79.9999976158142,2|0|0
492,256,49567,1,2
476,184,49703,2,0,B|476:144|507:112,2,79.9999976158142,8|0|0
404,200,50113,1,8
380,132,50249,2,0,B|364:92|372:44,1,79.9999976158142,0|0
300,32,50522,1,0
248,84,50658,2,0,B|216:116|177:115,1,79.9999976158142,0|8
248,84,51067,6,0,B|208:92|168:84,1,79.9999976158142
112,36,51340,2,0,B|97:76|56:89,1,79.9999976158142,2|0
12,148,51613,2,0,B|20:212|20:212|52:252|140:252,1,159.999995231628,0|8
136,316,52022,1,0
204,340,52158,2,0,B|236:364|284:364,2,79.9999976158142,0|8|0
188,268,52567,1,0
260,284,52703,2,0,B|340:308|420:284,1,159.999995231628,0|8
484,252,53113,2,0,B|516:212|484:164,1,79.9999976158142
472,40,53522,5,2
368,136,53794,1,0
256,40,54067,1,8
256,56,54203,1,0
256,72,54340,1,0
256,88,54476,1,8
256,104,54613,5,0
144,136,54749,2,0,B|127:185|127:185|151:225|220:233,1,159.999995231628
292,233,55158,2,0,B|360:225|384:185|384:185|367:135,1,159.999995231628,0|0
40,40,55703,5,6
112,56,55840,2,0,B|184:104|184:104|184:184|80:200,1,239.999992847443,0|8
16,168,56385,1,0
72,120,56522,1,0
136,152,56658,2,0,B|216:176|296:152,1,159.999995231628,8|0
360,120,57067,1,0
392,56,57203,1,0
456,24,57340,2,0,B|495:47|503:85,2,79.9999976158142,8|0|0
392,56,57749,1,0
324,28,57885,6,0,B|276:40|268:88,1,79.9999976158142,2|0
200,56,58158,2,0,B|160:32|120:32,1,79.9999976158142,0|2
56,64,58431,2,0,B|127:119|80:206,1,159.999995231628,8|0
48,272,58840,2,0,B|103:200|190:247,1,159.999995231628,8|0
248,296,59249,1,0
312,328,59385,1,0
384,312,59522,2,0,B|431:328|457:296,1,79.9999976158142,8|0
408,240,59794,2,0,B|362:225|336:257,1,79.9999976158142
320,168,60067,6,0,B|364:131|364:131|388:75|322:53,1,159.999995231628,2|0
256,24,60476,1,2
188,53,60613,2,0,B|123:75|147:131|147:131|192:168,1,159.999995231628,8|0
128,208,61022,2,0,B|152:240|188:259,2,79.9999976158142,8|0|0
56,192,61431,2,0,B|56:232|80:280,1,79.9999976158142
120,328,61703,2,0,B|200:352|280:328,1,159.999995231628,8|0
416,280,62249,6,0,B|429:221|429:221|400:176|344:184,1,159.999995231628,2|0
272,208,62658,1,2
224,264,62794,2,0,B|295:209|248:122,1,159.999995231628,8|0
192,72,63203,2,0,B|247:144|334:97,1,159.999995231628,8|0
384,40,63613,2,0,B|312:95|359:182,2,159.999995231628,0|8|0
456,40,64294,1,0
472,112,64431,6,0,B|520:128|520:128|544:192|480:232,1,159.999995231628,6|0
424,256,64840,1,2
456,320,64976,2,0,B|432:360|393:364,2,79.9999976158142,8|0|0
424,256,65385,2,0,B|384:248|344:255,1,79.9999976158142,8|0
424,256,65794,6,0,B|391:223|352:224,1,79.9999976158142,0|0
280,240,66067,1,8
280,240,66340,2,0,B|312:207|311:168,1,79.9999976158142,0|0
328,96,66613,1,2
328,96,66885,2,0,B|352:136|392:144,2,79.9999976158142,0|2|8
256,72,67294,1,0
192,112,67431,6,0,B|232:140|228:188,1,79.9999976158142,0|8
76,336,67703,2,0,B|36:308|40:260,1,79.9999976158142,0|0
172,224,67976,2,0,B|208:256|200:300,1,79.9999976158142,0|0
100,220,68249,2,0,B|64:188|72:144,2,79.9999976158142,8|0|0
140,160,68658,1,0
92,48,68794,6,0,B|124:32|172:40,2,79.9999976158142,2|0|0
80,120,69203,1,2
140,160,69340,2,0,B|212:208|308:176,1,159.999995231628,8|0
344,128,69749,2,0,B|296:200|328:296,1,159.999995231628,8|0
372,336,70158,1,0
444,328,70294,1,0
476,264,70431,1,8
428,208,70567,1,0
356,216,70703,1,0
324,280,70840,6,0,B|300:312|236:320,2,79.9999976158142,0|2|0
276,224,71249,2,0,B|244:176|244:176|196:152|140:176,1,159.999995231628,0|8
88,220,71658,2,0,B|104:264|156:276,2,79.9999976158142,0|0|8
60,152,72067,2,0,B|44:112|44:112|68:56|148:72,1,159.999995231628,2|0
212,96,72476,1,2
284,112,72613,1,8
356,96,72749,1,0
404,40,72885,1,2
404,40,73158,5,6
256,272,73431,5,0
256,344,73567,2,0,B|304:376|304:376|384:360|328:272,1,159.999995231628,0|0
256,344,74113,2,0,B|208:376|208:376|128:360|184:272,1,159.999995231628,0|0
192,232,74522,1,0
256,200,74658,1,0
320,232,74794,1,0
464,256,75067,1,2
496,192,75203,1,0
464,128,75339,1,2
400,160,75476,6,0,B|336:152|304:120|304:120|288:32,1,159.999995231628
217,66,75885,2,0,B|208:120|208:120|176:152|112:160,1,159.999995231628
40,144,76294,1,0
32,72,76431,2,0,B|16:24|72:0,2,79.9999976158142
48,216,76976,6,0,B|32:264|32:264|48:320|136:328,1,159.999995231628,2|0
184,352,77385,1,0
240,304,77522,1,2
312,320,77658,2,0,B|344:352|382:351,1,79.9999976158142,0|0
312,320,78067,6,0,B|351:327|391:321,1,79.9999976158142,0|0
456,288,78340,1,0
448,216,78476,1,0
376,200,78613,1,0
344,264,78749,2,0,B|304:271|264:265,2,79.9999976158142
376,200,79158,1,0
336,64,79431,6,0,B|256:40|176:64,1,159.999995231628,0|2
124,112,79840,1,0
56,84,79976,1,0
248,264,80249,6,0,B|271:303|313:303,1,79.9999976158142,2|2
272,192,80522,2,0,B|248:152|206:152,1,79.9999976158142,2|2
184,224,80794,2,0,B|144:247|144:289,1,79.9999976158142,2|2
336,232,81067,2,0,B|375:208|375:166,1,79.9999976158142,2|2
360,64,81340,6,0,B|360:23|321:0,1,79.9999976158142,2|2
192,0,81613,2,0,B|153:23|152:64,1,79.9999976158142,2|2
56,112,81885,6,0,B|0:144|0:144|-8:192|48:224,1,159.999995231628,6|0
104,264,82294,1,2
176,248,82431,2,0,B|192:288|176:328,2,79.9999976158142,8|0|0
144,184,82840,1,8
176,120,82976,2,0,B|216:104|256:120,1,79.9999976158142
176,120,83385,6,0,B|200:88|256:88,1,79.9999976158142,0|8
320,88,83658,1,0
384,120,83794,1,0
416,184,83931,1,0
408,256,84067,6,0,B|392:312|392:312|352:344|288:336,1,159.999995231628,2|0
224,320,84476,1,2
168,368,84613,2,0,B|130:384|90:368,1,79.9999976158142,0|0
24,336,84885,2,0,B|8:296|24:258,1,79.9999976158142,0|8
88,216,85158,2,0,B|103:254|88:294,1,79.9999976158142
32,168,85431,2,0,B|48:112|48:112|88:80|152:88,1,159.999995231628,0|8
208,124,85840,1,0
264,76,85976,2,0,B|304:92|317:133,1,79.9999976158142
280,196,86249,6,0,B|368:228|368:164|456:196,1,159.999995231628,2|0
480,248,86658,1,2
440,308,86794,2,0,B|432:348|388:372,2,79.9999976158142,8|0|0
376,272,87204,1,8
320,320,87340,2,0,B|280:344|232:320,1,79.9999976158142
176,288,87613,1,0
112,328,87749,2,0,B|96:288|112:248,1,79.9999976158142,0|8
112,328,88158,6,0,B|96:288|64:256,1,79.9999976158142,0|0
20,208,88431,1,2
44,140,88567,1,0
68,72,88704,2,0,B|117:40|117:40|165:40|197:95,1,159.999995231628,0|8
244,40,89113,2,0,B|320:-4|396:40,1,159.999995231628
432,104,89522,6,0,B|452:144|494:152,1,79.9999976158142
356,132,89794,2,0,B|344:176|380:216,1,79.9999976158142,0|0
276,116,90067,2,0,B|224:128|212:184,2,79.9999976158142,8|0|0
288,188,90476,1,0
232,236,90613,6,0,B|212:276|170:284,1,79.9999976158142,6|0
100,284,90885,2,0,B|58:276|38:236,2,79.9999976158142,0|2|8
136,220,91294,1,0
260,316,91567,5,8
324,352,91704,2,0,B|352:372|400:372,2,79.9999976158142
364,292,92113,1,0
420,248,92249,2,0,B|440:200|396:160,2,79.9999976158142,8|0|0
352,220,92658,1,0
340,148,92794,6,0,B|268:156|284:52|196:68,1,159.999995231628,2|0
152,28,93204,1,0
84,52,93340,2,0,B|44:84|60:132,1,79.9999976158142,8|0
104,180,93613,2,0,B|144:148|128:100,2,79.9999976158142,0|8|0
36,208,94022,1,0
4,272,94158,1,0
36,336,94294,2,0,B|59:368|106:368,1,79.9999976158142,0|8
35,336,94704,6,0,B|74:352|112:337,1,79.9999976158142
76,276,94976,2,0,B|148:212|220:276,1,159.999995231628,2|0
276,320,95385,1,2
348,308,95522,2,0,B|356:348|404:372,2,79.9999976158142,8|0|0
348,235,95931,2,0,B|372:204|413:190,1,79.9999976158142,8|0
468,236,96204,1,0
424,292,96340,1,0
512,180,96613,5,8
468,124,96749,2,0,B|453:85|416:67,1,79.9999976158142
352,32,97022,1,0
280,48,97158,2,0,B|224:24|224:24|160:40|152:104,1,159.999995231628,2|0
96,128,97567,1,0
152,172,97703,6,8,B|144:216|188:237,2,79.9999976158142,8|0|0
256,256,98113,1,8
324,237,98249,2,8,B|368:216|360:172,2,79.9999976158142,0|0|0
256,256,98658,1,0
256,184,98794,1,0
256,344,99067,5,0
328,344,99204,1,0
360,280,99340,2,0,B|384:241|426:241,1,79.9999976158142,2|0
496,248,99613,2,0,B|457:225|457:183,1,79.9999976158142,0|2
456,112,99885,2,0,B|433:152|391:152,1,79.9999976158142,8|0
388,80,100158,6,0,B|411:40|453:40,2,79.9999976158142,0|8|0
328,120,100567,1,0
332,192,100704,2,0,B|283:224|283:224|235:224|203:169,1,159.999995231628,0|8
140,132,101113,2,0,B|100:124|60:132,1,79.9999976158142
4,176,101385,1,0
40,240,101522,2,0,B|48:280|40:320,2,79.9999976158142,2|0|0
112,240,101931,5,2
116,312,102067,1,8
184,336,102204,2,0,B|184:292|224:272,1,79.9999976158142,0|0
288,240,102476,1,8
360,256,102613,1,0
400,196,102749,1,0
472,212,102885,2,0,B|504:190|504:143,2,79.9999976158142,0|0|8
472,212,103431,6,0,B|480:173|473:133,1,79.9999976158142
408,100,103704,2,0,B|384:140|324:132,2,79.9999976158142,2|0|0
444,36,104113,1,0
372,36,104249,2,0,B|348:-4|288:4,1,79.9999976158142,8|0
232,20,104522,1,0
192,80,104658,1,8
248,128,104794,2,0,B|264:168|248:208,2,79.9999976158142,0|0|0
180,156,105204,1,0
144,220,105340,6,0,B|288:332|288:108|432:220,1,319.999990463257
256,192,106022,12,0,107522
