osu file format v6

[General]
AudioFilename: Corridors of Time.mp3
AudioLeadIn: 176
PreviewTime: -1
Countdown: 0
SampleSet: Normal
StackLeniency: 0.7
Mode: 0
LetterboxInBreaks: 1

[Editor]
DistanceSpacing: 0.800000011920929
BeatDivisor: 4
GridSize: 8

[Metadata]
Title:Corridors of Time (House Arrange)
Artist:NicoNicoDouga
Creator:Echona
Version:Hard
Source:Chrono Trigger
Tags:Game

[Difficulty]
HPDrainRate:6
CircleSize:5
OverallDifficulty:7
SliderMultiplier:1.6
SliderTickRate:0.5

[Events]
//Background and Video events
0,0,"Toki no Kairou.jpg"
//Break Periods
2,60505,66678
//Storyboard Layer 0 (Background)
//Storyboard Layer 1 (Fail)
//Storyboard Layer 2 (Pass)
//Storyboard Layer 3 (Foreground)
//Storyboard Sound Samples
//Background Colour Transformations
3,100,163,162,255

[TimingPoints]
13033,454.545454545455,4,1,1,33,1,0
18373,-100,4,2,2,40,0,0
20192,-100,4,1,1,32,0,0
22010,-100,4,2,1,30,0,0
23828,-100,4,1,1,32,0,0
25646,-100,4,2,2,40,0,0
27237,-100,4,2,1,33,0,0
29274,-100,4,1,1,40,0,0
29283,-100,4,1,1,25,0,0
31101,-100,4,2,1,40,0,0
34810,-100,4,1,1,30,0,0
34964,-100,4,2,1,40,0,0
42010,-100,4,1,1,30,0,0
42237,-100,4,2,1,40,0,0
45490,-100,4,2,1,30,0,0
45646,-100,4,1,0,30,0,0
45873,-100,4,2,1,40,0,0
53828,-100,4,2,2,40,0,0
54055,-100,4,2,1,40,0,0
55646,-100,4,2,2,40,0,0
55873,-100,4,2,1,40,0,0
56555,-100,4,2,1,32,0,0
58373,-100,4,1,1,25,0,0
60419,-100,4,2,1,40,0,0
68828,-100,4,2,2,40,0,0
69055,-100,4,2,1,40,0,0
70646,-100,4,2,2,40,0,0
70873,-100,4,2,1,40,0,0
71101,-100,4,1,1,26,0,0
72919,-100,4,1,1,19,0,0
74510,-100,4,2,2,50,0,0
85646,-100,4,1,0,30,0,0
86555,-100,4,2,0,50,0,0
86783,-100,4,2,2,50,0,0
87464,-100,4,2,0,50,0,0
87692,-100,4,2,2,50,0,0
89283,-100,4,1,0,25,0,0
89510,-100,4,2,2,50,0,0
96328,-100,4,2,0,50,0,0
97464,-100,4,2,2,50,0,0
97692,-100,4,2,1,50,0,0
99283,-100,4,2,2,50,0,0
99510,-100,4,2,1,50,0,0
102010,-100,4,1,0,30,0,0
102919,-100,4,1,0,25,0,0
104169,-100,4,2,2,40,0,0
105533,-100,4,2,2,50,0,0
107464,-100,4,2,2,40,0,0
107692,-100,4,2,2,50,0,0
111101,-100,4,2,2,40,0,0
111328,-100,4,2,2,50,0,0
114737,-100,4,1,0,30,0,0
114964,-100,4,2,2,50,0,0
115646,-100,4,1,0,30,0,0
115874,-100,4,2,2,50,0,0
116555,-100,4,1,0,30,0,0
116783,-100,4,2,2,50,0,0
117464,-100,4,1,0,30,0,0
117692,-100,4,2,2,50,0,0
122010,-100,4,2,1,50,0,0
122237,-100,4,2,2,50,0,0
122919,-100,4,2,0,50,0,0
123146,-100,4,2,2,50,0,0
123714,-100,4,2,1,40,0,0
125533,-100,4,2,2,51,0,0
126555,-100,4,2,0,51,0,0
126783,-100,4,2,2,51,0,0
127464,-100,4,1,0,30,0,0
127692,-100,4,2,2,50,0,0
128373,-100,4,2,1,50,0,0
128601,-100,4,2,2,50,0,0
129283,-100,4,1,0,30,0,0

[Colours]
Combo1 : 77,166,255
Combo2 : 247,251,255
Combo3 : 162,208,255

[HitObjects]
256,192,13033,12,4,16215
144,88,16669,6,0,B|232:88,1,80
288,88,17123,1,0
288,88,17237,1,0
344,168,17578,2,0,B|248:168,1,80
200,168,18033,1,0
200,168,18146,1,0
120,224,18487,5,2
168,272,18714,1,0
232,272,18942,1,0
280,224,19169,1,0
328,176,19396,2,0,B|376:176,2,40,2|0|0
296,120,19851,2,0,B|248:120,2,40,0|0|0
328,64,20305,6,0,B|416:64,1,80
472,64,20760,1,0
472,64,20873,1,0
416,144,21214,2,0,B|416:232,1,80
416,288,21669,1,0
416,288,21783,1,0
256,296,22123,6,0,B|256:344,2,40,2|0|0
152,192,22578,2,0,B|104:192,2,40,0|0|0
256,88,23033,2,0,B|256:32,2,40,2|0|0
360,192,23487,2,0,B|416:192,2,40,0|0|0
256,296,23942,5,0
192,296,24169,1,0
128,296,24396,1,0
128,296,24510,1,0
128,296,24623,1,0
64,296,24851,2,0,B|16:296,2,40,0|0|0
64,296,25305,1,0
160,192,25760,5,2
224,192,25987,1,0
288,192,26214,1,0
288,192,26328,1,0
288,192,26442,1,0
352,192,26669,2,0,B|400:192,2,40,2|0|0
352,192,27123,1,0
448,272,27578,6,0,B|384:336,1,80,0|0
344,288,28033,2,0,B|256:288,1,80,8|0
200,264,28487,1,0
144,232,28714,1,8
200,264,28942,2,0,B|248:192,1,80,0|8
280,144,29396,5,0
312,144,29510,1,0
344,144,29623,1,0
384,192,29851,1,0
400,216,29964,1,0
416,240,30078,1,0
368,280,30305,1,0
344,296,30419,1,0
320,312,30533,1,0
256,296,30760,1,4
232,280,30873,1,4
208,264,30987,1,4
160,224,31214,6,0,B|96:152|168:80,1,160,0|8
216,40,31896,1,0
216,40,32123,2,0,B|384:40,1,160,0|8
464,136,33033,2,0,B|528:216|448:304,1,160,0|8
424,336,33714,1,0
424,336,33828,1,0
424,336,33942,2,0,B|256:336,1,160,0|8
200,336,34623,1,0
200,336,34737,1,0
200,336,34851,2,0,B|136:264|208:176,1,160,4|8
232,136,35533,1,0
232,136,35760,2,0,B|408:136,1,160,0|8
496,224,36669,6,0,B|408:224,1,80,2|0
376,272,37123,1,0
376,272,37351,1,0
312,280,37578,2,0,B|216:280,1,80,2|0
176,312,38033,1,0
176,312,38260,1,0
232,280,38487,6,0,B|320:240|288:136,1,160,4|8
248,96,39169,1,0
248,96,39396,2,0,B|72:96,1,160,0|8
176,192,40305,2,0,B|352:192,1,160,0|8
384,232,40987,1,0
384,232,41101,1,0
384,232,41214,2,0,B|376:336|264:336,1,160,0|8
216,336,41896,5,0
160,304,42123,2,0,B|160:136,1,160,4|8
216,112,42805,1,0
272,144,43033,2,0,B|272:312,1,160,0|8
216,336,43714,1,0
160,304,43942,6,0,B|120:304|80:248,1,80,0|0
136,216,44396,2,0,B|128:168|192:144,1,80,8|0
232,176,44851,2,0,B|280:160|288:112,1,80,0|0
320,64,45305,2,0,B|368:64,2,40,0|0|4
256,64,45760,5,4
192,64,45987,1,0
128,64,46214,2,0,B|64:128,1,80,0|8
24,168,46669,5,0
48,184,46783,1,8
72,200,46896,1,0
96,216,47010,1,0
120,232,47123,1,8
248,240,47578,5,0
312,240,47805,1,0
376,240,48033,2,0,B|440:168,1,80,0|8
464,128,48487,5,0
440,112,48601,1,8
416,96,48714,1,0
392,80,48828,1,0
368,64,48942,1,8
256,128,49396,5,0
200,168,49623,1,0
200,232,49851,1,8
200,232,49964,1,0
200,232,50078,1,0
264,232,50305,1,0
360,232,50646,1,0
360,232,50760,2,0,B|432:272,1,80,8|0
408,328,51214,5,0
344,328,51442,1,0
280,328,51669,1,8
216,328,51896,1,0
152,328,52123,2,0,B|104:328,4,40,0|8|0|0|8
152,328,52805,5,0
200,232,53033,1,2
280,168,53260,1,0
376,120,53487,1,0
480,104,53714,1,0
480,208,53942,2,0,B|480:344,2,120,2|0|0
480,104,54851,5,2
376,80,55078,1,0
272,56,55305,1,0
168,32,55533,1,0
88,104,55760,2,0,B|88:240,2,120,2|0|0
168,32,56669,5,8
168,32,56896,1,0
216,80,57123,1,0
256,128,57351,1,8
208,176,57578,1,0
160,224,57805,1,8
208,264,58033,1,8
256,304,58260,1,8
320,304,58487,6,0,B|384:304,2,40,0|0|0
320,240,58942,2,0,B|320:192,2,40
256,240,59396,2,0,B|200:240,2,40
256,304,59851,2,4,B|256:352,4,40,0|0|0|0|4
112,192,67578,6,0,B|200:192,1,80,0|0
256,192,68033,1,8
320,192,68260,1,0
384,192,68487,1,0
384,192,68601,1,0
384,192,68714,2,0,B|384:280,2,80,0|2|0
384,128,69396,6,0,B|384:32,1,80,0|0
320,48,69851,1,8
256,48,70078,1,0
192,48,70305,1,0
192,48,70419,1,0
192,48,70533,2,0,B|96:48,1,80,0|2
120,176,71214,6,0,B|144:264,1,80,4|0
152,312,71669,1,0
152,312,71783,1,0
152,312,71896,1,0
216,312,72123,2,0,B|312:312,1,80,4|0
360,312,72578,1,0
360,312,72692,1,0
360,312,72805,1,0
424,312,73033,2,0,B|472:312,12,40,4|4|4|4|4|4|4|4|4|4|4|4|4
360,312,74623,5,0
360,312,74851,2,0,B|288:312|256:240,2,120,4|4|0
424,312,75760,2,0,B|424:136,1,160,0|8
376,104,76442,1,0
320,64,76669,2,0,B|144:64,1,160,0|8
112,104,77351,1,0
112,104,77464,1,0
112,104,77578,2,0,B|104:200|200:232,1,160,0|8
256,240,78260,1,0
256,240,78373,1,0
256,240,78487,2,0,B|392:240,2,120,4|4|0
200,272,79396,6,0,B|104:296|64:208,1,160,0|8
128,48,80305,2,0,B|224:24|272:112,1,160,0|8
200,272,81214,2,0,B|104:296|64:208,1,160,0|8
32,160,81896,5,0
32,160,82010,1,0
32,160,82123,2,0,B|48:88|128:88,2,120,4|4|0
56,216,83033,2,0,B|224:216,1,160,0|8
280,216,83714,1,0
296,280,83942,2,0,B|392:216|288:144,1,160,0|8
280,216,84623,1,0
280,216,84737,1,0
280,216,84851,2,0,B|152:216,2,120,4|4|4
336,176,85760,2,0,B|472:176,2,120,4|4|4
288,128,86669,5,0
224,128,86896,1,0
160,128,87123,2,0,B|128:208,1,80,8|0
112,264,87578,1,0
176,264,87805,1,0
240,264,88033,1,8
304,264,88260,1,0
304,264,88373,1,0
304,264,88487,2,0,B|376:256|400:184,2,120,4|4|0
240,264,89396,5,4
192,224,89623,1,0
176,160,89851,2,0,B|272:160,1,80,8|0
320,160,90305,5,0
344,176,90419,1,8
368,192,90533,1,0
392,208,90646,1,0
416,224,90760,1,8
368,344,91214,5,0
304,344,91442,1,0
240,344,91669,2,0,B|168:288,1,80,8|0
128,256,92123,5,0
152,240,92237,1,8
176,224,92351,1,0
200,208,92464,1,0
224,192,92578,1,8
328,128,93033,5,0
392,128,93260,1,0
456,128,93487,1,8
456,128,93601,1,0
456,128,93714,1,0
456,192,93942,1,0
456,288,94283,1,0
456,288,94396,2,0,B|360:288,1,80,8|0
320,328,94851,5,0
264,296,95078,1,0
208,328,95305,1,8
152,296,95533,1,0
96,328,95760,2,0,B|48:328,4,40,0|0|0|0|8
96,328,96442,5,0
144,232,96669,1,2
224,168,96896,1,0
320,128,97123,1,0
424,104,97351,1,0
424,208,97578,2,0,B|424:344,2,120,2|0|0
424,104,98487,5,2
320,80,98714,1,0
216,56,98942,1,0
112,32,99169,1,0
56,120,99396,2,0,B|56:256,2,120,2|0|0
112,32,100305,5,2
112,32,100533,1,0
168,64,100760,1,0
192,80,100873,1,0
216,96,100987,1,0
184,152,101214,1,2
168,176,101328,1,0
152,200,101442,1,0
208,232,101669,1,0
232,248,101783,1,0
256,264,101896,1,0
304,216,102123,6,0,B|304:168|360:144,1,80,0|0
280,144,102578,2,0,B|232:144|216:88,1,80,0|0
184,152,103033,2,0,B|136:152,8,40,0|0|0|0|0|0|0|0|4
312,152,104396,5,8
400,248,104851,1,0
488,152,105305,1,8
400,64,105760,5,0
336,64,105987,1,0
272,64,106214,1,8
272,64,106442,1,0
224,104,106669,2,0,B|208:144|152:160,1,80
216,192,107123,2,0,B|256:208|272:256,1,80,8|0
320,208,107578,6,0,B|344:176|392:152,1,80,2|0
320,128,108033,2,0,B|272:104|272:48,1,80,8|0
224,104,108487,2,0,B|208:144|152:160,1,80
104,184,108942,1,8
40,200,109169,1,0
88,248,109396,6,0,B|128:272|112:328,2,80,0|0|8
40,200,110078,1,0
104,184,110305,2,0,B|88:136|144:104,2,80,0|0|8
88,248,110987,1,0
152,248,111214,5,2
216,248,111442,1,0
280,248,111669,2,0,B|376:248,1,80,8|0
424,248,112123,1,0
424,248,112237,1,0
424,248,112351,1,0
424,248,112578,2,0,B|488:312,1,80,8|0
368,344,113033,5,0
304,344,113260,1,0
240,344,113487,2,0,B|152:344,1,80,8|0
96,344,113942,1,0
96,344,114055,1,0
96,344,114169,1,0
96,344,114396,2,0,B|64:264,1,80,8|0
48,144,114851,6,0,B|32:128|0:128,2,40,4|0|0
112,128,115305,2,0,B|160:136|192:176,1,80,8|0
232,200,115760,2,0,B|256:216|280:216,2,40,4|0|0
176,224,116214,2,0,B|152:264|104:256,1,80,8|0
152,304,116669,6,0,B|200:304|232:344,1,80,4|0
272,296,117123,2,0,B|312:296|344:256,1,80,8|0
400,232,117578,2,0,B|424:240|440:256,2,40,4|0|0
344,200,118033,2,0,B|336:152|368:112,1,80,8|0
408,80,118487,5,4
456,120,118714,1,0
480,176,118942,2,0,B|448:208|392:208,1,80,8|0
344,200,119396,5,0
312,192,119510,1,8
280,184,119623,1,0
248,176,119737,1,0
216,168,119851,1,8
96,208,120305,5,0
56,256,120533,1,0
48,320,120760,2,0,B|88:344|128:328,1,80,8|0
184,320,121214,5,0
216,312,121328,1,8
248,304,121442,1,0
280,296,121555,1,0
312,288,121669,1,8
256,168,122123,6,0,B|160:168,1,80,2|0
112,168,122578,1,8
200,256,123033,2,0,B|288:256,1,80,2|0
344,256,123487,1,8
456,192,123942,5,4
256,48,124396,1,4
256,336,124851,1,4
48,192,125305,1,4
256,48,125760,6,0,B|264:88|304:112,1,80,4|0
248,136,126214,2,0,B|224:168|168:176,1,80,8|0
224,224,126669,2,0,B|264:240|280:288,1,80,2|0
336,256,127123,2,0,B|352:208|400:200,1,80,8|0
352,152,127578,5,4
304,104,127805,1,0
240,104,128033,2,0,B|152:104,1,80,8|0
96,104,128487,1,2
64,160,128714,1,0
96,216,128942,2,0,B|184:216,1,80,8|0
240,216,129396,5,4
272,216,129510,1,0
304,216,129623,1,0
304,152,129851,1,4
304,120,129964,1,0
304,88,130078,1,0
240,88,130305,1,4
208,88,130419,1,0
176,88,130533,1,0
176,152,130760,1,4
176,184,130873,1,0
176,216,130987,1,0
256,192,131101,12,4,133033
