osu file format v5

[General]
AudioFilename: NicoNicoDouga - Cirno de Gozaimasu!.mp3
AudioLeadIn: 0
PreviewTime: -1
Countdown: 1
SampleSet: Soft
StackLeniency: 0.7
Mode: 0
LetterboxInBreaks: 1

[Metadata]
Title:Cirno de Gozaimasu!
Artist:NicoNicoDouga
Creator:Mafiamaster
Version:Normal
Source:
Tags:

[Difficulty]
HPDrainRate:5
CircleSize:4
OverallDifficulty:4
SliderMultiplier:1.4
SliderTickRate:1

[Events]
//Background and Video events
0,0,"cirno1_1024_768.jpg"
1,0,"Cirno de Gozaimasu!_xvid.avi"
//Break Periods
2,26971,29804
//Storyboard Layer 0 (Background)
//Storyboard Layer 1 (Failing)
//Storyboard Layer 2 (Passing)
//Storyboard Layer 3 (Foreground)
//Storyboard Sound Samples
//Background Colour Transformations
3,100,0,0,0

[TimingPoints]
160,483.812442043301,4,2,1,100,1
52406,483.675937122128,4,1,1,100,1

[Colours]
Combo1 : 174,191,232
Combo2 : 7,170,248
Combo3 : 0,121,255
Combo4 : 7,170,248
Combo5 : 163,207,243

[HitObjects]
112,48,4021,1,8
112,117,4262,1,0
172,80,4504,1,0
320,80,4988,1,8
390,80,5230,1,0
353,139,5472,1,0
368,288,5956,1,8
224,288,6440,1,8
80,288,6924,1,8
368,288,7892,5,8
298,286,8133,1,0
335,226,8375,1,0
335,85,8859,1,8
370,24,9101,1,0
299,24,9343,1,0
186,99,9827,1,8
72,180,10311,1,8
200,236,10795,1,8
464,64,11763,5,0
464,133,12004,1,0
393,133,12246,1,0
393,62,12488,1,0
322,63,12730,2,0,B|178:63,1,140
41,61,13698,5,0
111,61,13940,1,0
111,131,14182,1,0
40,131,14424,1,0
40,201,14666,2,0,B|40:345,1,140
180,340,15634,5,0
180,270,15875,1,0
109,270,16117,1,0
109,340,16359,1,0
179,341,16601,2,0,B|355:341,1,140
459,340,17569,5,0
458,269,17811,1,0
387,270,18053,1,0
385,199,18295,1,0
456,201,18537,2,0,B|280:201,1,140,0|0
64,192,19505,5,8
128,160,19746,1,8
192,192,19988,1,8
320,192,20472,1,8
257,160,20714,1,8
192,192,20956,1,8
256,64,21440,5,8
288,192,21924,1,8
217,191,22166,1,0
254,131,22408,1,8
254,271,22892,1,8
394,271,23376,5,8
446,225,23617,1,8
378,205,23859,1,8
253,141,24343,1,8
189,111,24585,1,8
191,180,24827,1,8
257,303,25311,5,8
144,256,25795,1,0
193,205,26037,1,0
256,174,26279,1,8
317,207,26521,1,4
367,255,26763,1,8
400,48,31118,5,8
449,96,31359,1,0
381,116,31601,1,0
434,245,32085,5,8
384,195,32327,1,0
364,262,32569,1,0
257,352,33053,5,8
257,211,33537,1,8
176,96,34021,1,8
112,64,34263,1,0
48,96,34505,1,0
176,32,34989,5,8
231,75,35231,1,0
245,6,35472,1,0
255,145,35956,5,8
297,200,36198,1,0
228,212,36440,1,0
341,294,36924,5,8
432,187,37408,1,8
341,79,37892,1,8
342,149,38134,1,0
342,219,38376,1,0
416,80,38860,5,0
416,150,39102,1,0
346,150,39343,1,0
346,79,39585,1,0
275,80,39827,2,0,B|115:80,1,140
7,80,40795,5,0
6,150,41037,1,0
76,150,41279,1,0
75,79,41521,1,0
145,80,41763,2,0,B|289:80,1,140
384,80,42731,5,0
448,48,42973,1,0
448,117,43214,1,0
385,149,43456,1,0
444,185,43698,2,0,B|380:329,1,140
256,336,44666,5,0
305,286,44908,1,0
253,238,45150,1,0
205,289,45392,1,0
144,254,45634,2,0,B|16:174,1,140,0|0
128,32,46602,5,8
192,64,46844,1,0
256,32,47085,1,8
400,80,47569,1,8
432,144,47811,1,0
400,208,48053,1,8
256,224,48537,5,8
256,83,49021,1,8
256,224,49505,1,8
256,153,49747,1,0
256,82,49989,1,8
256,224,50473,5,8
144,304,50956,1,8
32,224,51440,1,8
144,144,51924,1,8
256,192,52406,12,2,53857
