osu file format v5

[General]
AudioFilename: NicoNicoDouga - Cirno de Gozaimasu!.mp3
AudioLeadIn: 0
PreviewTime: -1
Countdown: 1
SampleSet: Soft
StackLeniency: 0.7
Mode: 0
LetterboxInBreaks: 1
EditorBookmarks: 4030,11771,19512,31123,46605

[Metadata]
Title:Cirno de Gozaimasu!
Artist:NicoNicoDouga
Creator:Mafiamaster
Version:Hard
Source:
Tags:

[Difficulty]
HPDrainRate:6
CircleSize:5
OverallDifficulty:4
SliderMultiplier:1.4
SliderTickRate:2

[Events]
//Background and Video events
0,0,"cirno1_1024_768.jpg"
1,0,"Cirno de Gozaimasu!_xvid.avi"
//Break Periods
//Storyboard Layer 0 (Background)
//Storyboard Layer 1 (Failing)
//Storyboard Layer 2 (Passing)
//Storyboard Layer 3 (Foreground)
//Storyboard Sound Samples
//Background Colour Transformations
3,100,163,162,255

[TimingPoints]
160,483.812442043301,4,2,1,100,1
52406,483.675937122128,4,1,1,100,1

[Colours]
Combo1 : 7,170,248
Combo2 : 0,121,255
Combo3 : 7,170,248
Combo4 : 174,191,232
Combo5 : 163,207,243

[HitObjects]
112,48,4030,1,8
112,118,4272,1,0
176,80,4514,1,0
240,112,4756,1,0
176,144,4998,1,8
240,176,5240,1,0
304,144,5481,1,0
304,214,5723,1,8
304,284,5965,1,8
245,245,6207,5,0
245,245,6328,1,0
245,245,6449,1,8
187,285,6691,1,0
246,322,6933,1,8
245,245,7175,1,8
245,245,7296,1,8
245,245,7417,1,8
400,320,7900,5,8
330,319,8142,1,0
374,264,8384,1,0
303,264,8626,1,8
374,265,8868,1,8
337,205,9110,1,0
303,264,9352,1,0
264,205,9594,1,8
193,205,9836,1,8
193,205,10078,5,0
193,205,10199,1,0
193,205,10320,1,8
262,205,10561,1,8
262,275,10803,1,8
262,345,11045,1,8
262,345,11166,1,8
262,345,11287,1,8
384,304,11771,5,0
384,272,11892,1,0
384,240,12013,1,0
384,160,12255,1,0
384,128,12376,1,0
384,96,12497,1,0
384,64,12618,1,0
352,64,12739,2,0,B|208:64,1,140,0|0
64,64,13706,5,0
96,64,13827,1,0
128,64,13948,1,0
160,80,14069,1,0
160,112,14190,1,0
128,144,14311,1,0
96,144,14432,1,0
80,176,14553,1,0
80,208,14674,2,0,B|80:352,1,140
224,352,15641,5,0
256,352,15762,1,0
288,352,15883,1,0
358,352,16125,1,0
393,352,16246,1,0
428,352,16367,1,0
460,338,16488,1,0
485,314,16609,2,0,B|485:138,1,140,0|0
485,33,17577,5,0
453,33,17698,1,0
421,33,17819,1,0
389,49,17940,1,0
405,81,18061,1,0
437,97,18182,1,0
469,113,18302,1,0
485,145,18423,1,0
453,161,18544,2,0,B|277:161,1,140,0|0
315,162,19270,1,0
144,256,19512,5,8
82,222,19754,1,8
142,186,19996,1,8
203,220,20238,1,0
264,252,20480,1,8
263,181,20722,1,8
202,146,20963,1,8
262,111,21205,1,0
323,145,21447,1,8
324,215,21689,5,0
324,215,21810,1,0
324,215,21931,1,8
323,144,22173,1,0
323,73,22415,1,8
382,109,22657,1,0
382,179,22899,1,8
336,320,23382,5,8
400,288,23624,1,8
339,253,23866,1,8
401,220,24108,1,0
340,184,24350,1,8
339,254,24592,1,8
276,286,24834,1,8
213,255,25076,1,0
212,325,25318,1,8
151,288,25560,5,0
151,288,25681,1,0
151,288,25802,1,0
91,324,26043,1,8
91,253,26285,1,8
119,189,26527,1,4
189,189,26769,1,8
480,352,27495,5,0
32,352,27979,1,0
32,32,28463,1,0
480,32,28946,1,0
256,352,29430,1,0
256,32,29914,1,0
256,352,30398,1,0
257,150,30882,1,0
257,80,31123,5,8
288,80,31244,1,0
320,80,31365,1,0
390,80,31607,1,0
460,81,31849,1,0
460,151,32091,1,8
424,151,32212,1,0
388,151,32333,1,0
389,221,32575,1,0
458,221,32817,1,0
459,291,33059,1,8
388,292,33301,5,0
388,292,33422,1,0
388,292,33543,1,8
457,293,33784,1,0
388,291,34026,1,8
317,290,34268,1,0
246,290,34510,1,8
105,291,34994,5,8
73,275,35115,1,0
57,243,35236,1,0
57,172,35478,1,0
57,101,35720,1,0
56,30,35962,1,8
90,31,36083,1,0
124,32,36204,1,0
124,101,36445,1,0
124,171,36687,1,0
194,171,36929,1,8
264,171,37171,5,0
264,171,37292,1,0
264,171,37413,1,0
334,171,37655,1,0
385,123,37897,1,8
334,171,38139,1,0
385,123,38381,1,8
491,32,38864,5,0
455,32,38985,1,0
419,32,39106,1,0
348,32,39348,1,0
312,32,39469,1,0
276,32,39590,1,0
240,32,39711,1,0
205,33,39832,2,0,B|45:33,1,140
48,208,40800,5,0
48,243,40921,1,0
48,278,41042,1,0
80,290,41163,1,0
113,278,41284,1,0
114,243,41405,1,0
114,208,41525,1,0
114,172,41646,1,0
114,136,41767,2,0,B|258:136,1,140,0|0
394,135,42735,5,0
424,117,42856,1,0
456,102,42977,1,0
426,38,43219,1,0
394,53,43340,1,0
363,69,43461,1,0
332,85,43582,1,0
300,100,43703,2,0,B|236:244,1,140,0|0
377,265,44670,5,0
341,265,44791,1,0
305,265,44912,1,0
270,266,45033,1,0
234,265,45154,1,0
199,266,45275,1,0
163,266,45396,1,0
127,266,45517,1,0
127,230,45638,2,0,B|-1:150,1,140
7,85,46364,1,0
76,85,46605,5,8
106,67,46726,1,0
136,84,46847,1,0
191,127,47089,1,0
260,128,47331,1,0
316,86,47573,1,8
345,67,47694,1,0
375,84,47815,1,0
406,146,48057,1,8
406,216,48299,1,0
365,272,48541,1,8
435,272,48783,5,0
465,254,48904,1,0
447,223,49025,1,8
405,167,49266,1,0
407,97,49508,1,8
406,26,49750,1,0
335,25,49992,1,8
194,24,50476,5,8
162,24,50597,1,0
130,24,50718,1,0
59,23,50960,1,8
59,93,51202,1,0
60,163,51444,1,8
60,195,51565,1,0
60,227,51686,1,0
124,254,51927,1,8
189,278,52169,1,0
256,192,52406,12,2,53857
