osu file format v5

[General]
AudioFilename: 6e7069d69233a06f4489c6287f835b59.mp3
AudioLeadIn: 0
PreviewTime: -1
Countdown: 1
SampleSet: Normal
StackLeniency: 0.7
Mode: 0

[Metadata]
Title:Caipirinha
Artist:NicoNicoDouga
Creator:Mifune24
Version:Normal
Source:
Tags:

[Difficulty]
HPDrainRate:4
CircleSize:4
OverallDifficulty:5
SliderMultiplier:1.6
SliderTickRate:1

[Events]
//Background and Video events
1,-31000,"0c4fff672fc6a2a882bebfb8d8b4dac7.avi"
//Break Periods
2,48477,55992
2,78975,83685
//Storyboard Layer 0 (Background)
//Storyboard Layer 1 (Failing)
//Storyboard Layer 2 (Passing)
//Storyboard Layer 3 (Foreground)
//Storyboard Sound Samples
//Background Colour Transformations
3,100,163,162,255

[TimingPoints]
6182,350.672121566335,4,1,0,33

[Colours]
Combo1 : 255,255,0
Combo2 : 5,240,5
Combo3 : 5,5,240
Combo4 : 240,5,5

[HitObjects]
192,64,6532,5,0
320,64,6883,1,0
320,192,7234,1,0
192,192,7584,1,0
96,288,8110,2,0,B|288:352|512:288,1,400
448,64,9338,5,0
448,192,9688,1,0
352,128,10039,1,0
256,192,10390,2,2,B|256:0,4,160
160,96,12143,5,0
32,96,12494,1,0
32,224,12844,1,0
160,224,13195,1,0
288,352,13721,2,0,B|384:352|480:256|480:160|352:64,1,400
256,160,14948,5,0
128,160,15299,1,0
192,288,15650,1,0
320,288,16000,2,2,B|512:288,4,160
416,192,17754,5,0
288,192,18104,1,0
160,192,18455,2,2,B|64:192,1,80
64,128,18806,1,2
192,128,19156,1,0
320,128,19507,1,0
416,64,19858,2,2,B|320:64,1,80
272,66,20208,1,2
143,66,20559,1,0
15,66,20910,1,0
15,66,21260,1,0
15,66,21611,2,4,B|16:266,3,160
256,192,23014,12,0,25468
128,96,25819,5,0
384,96,26520,1,0
384,352,27222,1,0
128,352,27923,1,2
128,352,28099,1,2
32,352,28449,1,4
256,96,28975,5,0
352,192,29326,1,0
256,288,29677,1,0
160,192,30027,1,0
60,72,30553,2,2,B|290:-15|469:85,1,400
256,160,31781,5,0
256,160,31956,1,0
256,160,32131,2,0,B|256:352,1,160
128,352,32833,1,4
32,256,33183,1,4
128,160,33534,1,4
224,256,33885,2,4,B|128:256,2,80
352,256,34586,5,0
480,256,34937,1,0
480,128,35287,1,0
352,128,35638,1,0
183,35,36164,2,0,B|93:33|19:94|16:156|20:214|48:269|96:305|133:327,1,400
256,192,37391,5,0
256,192,37567,1,0
256,192,37742,1,0
256,320,38093,1,0
384,320,38443,2,0,B|384:128,1,160
480,160,39145,2,0,B|480:352,2,160
320,64,40372,6,2,B|128:64,1,160
160,128,40898,1,2
160,128,41073,1,2
320,320,41775,2,2,B|128:320,1,160
160,256,42301,1,2
160,256,42476,1,2
160,192,42651,6,4,B|352:192,7,160
256,64,45457,1,2
256,192,46684,1,2
256,192,46859,1,2
256,320,48262,1,4
256,64,57029,5,0
128,64,57380,1,0
64,160,57730,1,0
192,160,58081,1,0
82,317,58607,2,2,B|290:379|516:314,1,400
416,96,59834,5,0
416,96,60010,1,0
416,96,60185,2,0,B|416:288,1,160
288,256,60886,1,0
288,256,61237,1,0
288,128,61588,1,0
288,128,61938,1,0
288,128,62289,1,0
160,128,62640,5,0
192,256,62990,1,0
64,256,63341,1,0
32,128,63692,1,0
199,34,64218,2,0,B|418:33|465:128|486:222|486:274,1,400
416,320,65445,6,2,B|64:320,1,320
32,224,66497,1,2
160,224,66848,1,2
288,224,67198,1,2
288,224,67549,1,2
288,224,67900,1,2
384,192,68250,6,0,B|384:64|96:96,1,320
96,224,69302,1,0
96,352,69653,2,0,B|256:352|256:192,1,240
256,160,70354,1,0
256,32,70705,5,0
384,64,71056,1,0
448,192,71407,1,0
320,160,71757,1,0
256,288,72108,1,0
160,192,72459,1,0
32,128,72809,1,0
128,32,73160,1,0
256,32,73511,5,0
384,32,73861,2,0,B|384:128|64:96,1,320
96,224,74913,1,0
224,224,75264,2,0,B|384:224|416:256|416:320,1,240
416,379,75965,1,0
288,384,76316,5,0
192,288,76667,1,0
256,160,77017,1,0
128,192,77368,1,0
192,64,77719,1,0
320,96,78069,1,0
352,224,78420,1,0
448,128,78771,1,0
128,64,84732,5,0
128,320,85433,1,0
384,320,86135,1,0
384,64,86836,1,0
256,192,87537,1,2
256,192,87888,1,2
256,192,88239,1,2
256,192,88589,1,2
256,192,88940,1,4
96,64,90343,5,2
224,64,90693,1,2
352,64,91044,1,2
448,160,91395,2,4,B|352:160,1,80
320,160,91745,1,4
192,160,92096,1,2
64,160,92447,1,2
128,256,92798,2,4,B|224:256,1,80
256,256,93148,1,4
384,256,93499,2,2,B|384:64,1,160
480,96,94200,1,0
480,96,94551,2,4,B|480:288,1,160
352,320,95252,6,0,B|160:320,1,160
96,256,95954,1,0
192,160,96304,1,0
288,64,96655,1,0
416,64,97006,2,2,B|480:160,1,80
480,192,97356,1,2
416,320,97707,1,0
320,224,98058,1,0
192,288,98408,2,2,B|96:288,1,80
64,288,98759,1,2
128,160,99110,1,0
256,192,99460,1,0
288,64,99811,2,2,B|384:64,1,80
416,64,100162,1,2
480,192,100512,2,4,B|480:288|352:288,3,160
256,320,101915,5,0
256,320,102090,1,0
256,320,102266,1,0
256,192,102616,1,0
256,192,102792,1,0
256,192,102967,1,0
422,96,103493,2,0,B|264:12|160:28|73:71|24:114,1,400
96,288,104720,5,0
224,288,105071,1,0
352,288,105422,1,0
480,288,105772,1,0
480,160,106123,1,0
352,160,106474,2,0,B|256:224|160:96|32:160,1,320
96,32,107526,5,2
96,32,107701,1,2
96,32,107876,1,2
224,32,108227,1,2
224,32,108402,1,2
224,32,108578,1,2
415,32,109104,2,2,B|493:136|494:216|451:299|362:339|291:360,1,400
224,320,110331,6,0,B|32:320,1,160
64,192,111032,2,0,B|256:192,1,160
224,64,111734,2,0,B|32:64,3,160
64,192,113136,5,0
192,192,113487,1,0
320,192,113838,1,0
320,192,114013,1,0
320,192,114189,1,0
512,192,114715,1,2
512,192,115416,1,4
352,288,115942,5,0
352,288,116117,1,0
352,288,116293,2,0,B|160:288,1,160
224,160,116994,1,0
352,224,117345,1,0
480,288,117695,1,0
480,288,118046,1,0
480,288,118397,1,0
480,160,118747,5,0
352,96,119098,1,0
352,224,119449,1,0
224,160,119799,1,0
96,96,120150,1,0
96,96,120325,2,0,B|96:288,2,160
256,192,121553,1,0
192,320,121903,1,0
320,288,122254,1,0
192,224,122605,1,4
256,320,122955,1,4
320,224,123306,1,4
192,288,123657,1,4
320,288,124007,1,4
256,192,124358,12,0,126637
128,192,127163,5,2
256,192,127514,1,2
384,192,127865,1,2
384,320,128215,2,2,B|32:320,2,320
256,192,129969,12,0,132248
384,64,132774,5,0
256,64,133125,1,0
128,64,133475,1,0
128,192,133826,2,0,B|320:192,1,160
160,256,134527,2,0,B|352:256,1,160
448,256,135229,1,0
256,192,135580,12,0,137859
256,192,138385,5,2
256,192,138736,1,2
256,192,139086,1,2
256,320,139437,2,4,B|64:320,1,160
256,320,140138,2,4,B|448:320,2,160
256,192,141190,12,0,143470
192,192,143996,6,0,B|384:192,2,160
192,320,145048,2,4,B|384:320,1,160
480,320,145749,2,4,B|480:128,1,160
480,32,146450,1,4
