osu file format v5

[General]
AudioFilename: 6e7069d69233a06f4489c6287f835b59.mp3
AudioLeadIn: 0
PreviewTime: -1
Countdown: 1
SampleSet: Normal
StackLeniency: 0.7
Mode: 0
EditorBookmarks: 17754,95954,101214

[Metadata]
Title:Caipirinha
Artist:NicoNicoDouga
Creator:Mifune24
Version:Insane
Source:
Tags:

[Difficulty]
HPDrainRate:5
CircleSize:5
OverallDifficulty:7
SliderMultiplier:1.8
SliderTickRate:1

[Events]
//Background and Video events
1,-31000,"0c4fff672fc6a2a882bebfb8d8b4dac7.avi"
//Break Periods
2,48477,55992
2,79146,83682
//Storyboard Layer 0 (Background)
//Storyboard Layer 1 (Failing)
//Storyboard Layer 2 (Passing)
//Storyboard Layer 3 (Foreground)
//Storyboard Sound Samples
//Background Colour Transformations
3,100,163,162,255

[TimingPoints]
6182,350.672121566335,4,1,0,37

[Colours]
Combo1 : 255,255,0
Combo2 : 5,240,5
Combo3 : 5,5,240
Combo4 : 240,5,5

[HitObjects]
128,64,6532,5,0
192,64,6708,1,0
256,64,6883,1,0
320,64,7058,1,0
320,128,7234,5,0
256,128,7409,1,0
192,128,7584,1,0
128,128,7760,1,0
32,224,8110,2,0,B|256:320|480:224,1,450
384,320,9338,5,0
320,320,9513,1,0
256,320,9688,2,0,B|64:320,1,180
64,160,10390,1,0
192,160,10740,1,0
320,160,11091,1,0
448,160,11442,1,2
384,160,11617,1,2
320,160,11792,1,2
256,320,12143,5,0
192,320,12318,1,0
192,256,12494,1,0
256,256,12669,1,0
256,192,12844,1,0
192,192,13020,1,0
192,128,13195,1,0
256,128,13370,1,0
320,0,13721,2,0,B|160:0|64:96|0:192|32:320,1,450
256,320,14948,5,0
256,256,15124,1,0
256,192,15299,1,0
256,32,15650,1,2
384,96,16000,1,2
384,224,16351,1,2
256,160,16702,1,2
128,96,17052,1,2
128,160,17228,1,2
128,224,17403,1,2
256,320,17754,5,0
320,320,17929,1,0
320,320,18017,1,0
320,320,18104,1,0
384,320,18280,2,0,B|480:320,3,90
480,256,18981,1,0
416,256,19156,1,0
416,192,19332,2,0,B|512:192,1,90
512,128,19682,2,0,B|416:128,1,90
416,64,20033,2,0,B|512:64,2,90
352,64,20559,5,0
288,64,20734,1,0
288,64,20822,1,0
288,64,20910,1,0
288,128,21085,1,0
224,96,21260,1,0
224,160,21436,2,0,B|224:256,1,90
160,256,21786,2,0,B|160:128,1,90
96,160,22137,2,0,B|96:256,2,90
96,96,22663,1,0
96,96,22838,1,0
96,96,23014,1,0
256,192,23189,12,0,25468
96,64,25819,1,0
96,128,25994,1,0
96,352,26520,1,0
160,352,26696,1,0
416,352,27222,1,0
416,288,27397,1,0
416,64,27923,1,2
352,64,28099,1,2
192,64,28449,1,4
224,224,28975,5,0
288,224,29151,1,0
288,160,29326,1,0
224,160,29501,1,0
224,224,29677,1,0
288,224,29852,1,0
288,160,30027,1,0
224,160,30203,1,0
352,64,30553,2,2,B|192:0|64:64|0:160|32:256,1,450
160,288,31781,5,0
224,288,31956,1,0
288,288,32131,2,0,B|480:288,1,180
448,160,32833,1,0
320,160,33183,1,0
192,160,33534,1,0
64,160,33885,1,0
128,160,34060,1,0
192,160,34235,1,0
256,32,34586,5,0
320,32,34761,1,0
288,96,34937,1,0
224,96,35112,1,0
256,160,35287,5,0
320,160,35463,1,0
288,224,35638,1,0
352,224,35813,1,0
480,256,36164,2,2,B|320:384|160:352|32:288,1,450
64,96,37391,5,0
128,96,37567,1,0
192,96,37742,2,0,B|384:96,1,180
384,224,38443,1,0
320,352,38794,1,0
192,352,39145,1,0
128,224,39495,1,0
128,160,39671,1,0
128,96,39846,1,0
256,32,40372,6,2,B|416:192,1,180
416,224,40898,1,2
448,160,41073,1,2
256,352,41775,2,2,B|96:192,1,180
96,160,42301,1,2
64,224,42476,1,2
32,160,42651,6,0,B|32:96|96:64,1,90
68,81,43002,1,0
106,20,43177,1,0
160,64,43353,2,0,B|224:64|256:128,1,90
238,100,43703,1,0
217,169,43879,1,0
288,192,44054,2,0,B|352:192|384:128,1,90
366,155,44405,1,0
339,88,44580,1,0
384,32,44755,2,0,B|448:32|480:96,1,90
462,68,45106,1,0
499,129,45281,1,0
480,192,45457,5,2
32,192,46684,1,2
32,192,46859,1,2
256,352,48262,5,4
256,160,57029,5,0
210,213,57204,1,0
254,268,57380,1,0
303,217,57555,1,0
257,161,57730,1,0
210,214,57906,1,0
254,267,58081,1,0
303,217,58256,1,0
416,128,58607,2,0,B|256:32|64:64|0:192,1,450
128,192,59834,5,0
128,256,60010,1,0
128,320,60185,1,0
128,320,60536,1,0
256,256,60886,1,0
384,320,61237,1,0
384,192,61588,1,0
512,256,61938,1,2
512,192,62114,1,2
512,128,62289,1,2
256,64,62640,5,0
192,96,62815,1,0
256,128,62990,1,0
192,160,63166,1,0
256,192,63341,1,0
192,224,63516,1,0
256,256,63692,1,0
192,288,63867,1,0
320,352,64218,2,2,B|512:256|512:96|416:0|352:0,1,450
128,64,65445,6,0,B|320:64,1,180
448,64,66146,1,0
448,192,66497,1,4
320,224,66848,1,4
192,192,67198,1,4
64,224,67549,1,2
64,224,67724,1,2
64,224,67900,1,2
96,320,68250,5,0
192,320,68513,2,0,B|256:224|352:384|416:288,1,225
512,256,69302,1,0
448,224,69478,1,0
448,224,69565,1,0
448,224,69653,1,0
384,192,69828,1,0
384,192,69916,1,0
384,192,70004,2,0,B|288:96|320:224|192:128,1,180
96,64,70705,5,0
160,64,70881,1,0
160,64,70968,1,0
160,64,71056,1,0
224,64,71231,2,2,B|352:64,3,90
384,64,71933,1,2
384,128,72108,1,2
320,128,72283,2,2,B|192:128,1,90
224,192,72634,2,2,B|352:192,1,90
320,256,72985,2,2,B|224:256,2,90
352,320,73511,5,0
256,320,73774,2,0,B|192:224|128:384|64:256,1,225
64,192,74387,1,0
64,128,74563,1,0
192,64,74913,1,0
256,96,75089,1,0
256,96,75176,1,0
256,96,75264,1,0
320,128,75439,1,0
320,128,75527,1,0
320,128,75615,2,0,B|320:192|448:192|416:288,1,180
320,352,76316,6,0,B|256:352|224:288,2,90
241,315,76842,1,0
256,256,77017,2,0,B|192:256|160:288,2,90
170,278,77543,1,0
180,341,77719,2,0,B|131:356|89:281,2,90
104,305,78245,1,0
41,305,78420,2,0,B|41:242|113:235,1,90
90,238,78771,1,0
90,238,78946,1,0
256,64,84732,5,0
64,64,85258,2,0,B|64:256,1,180
64,320,85784,1,0
128,320,85959,1,0
192,320,86135,1,0
416,320,86661,2,0,B|416:128,1,180
416,64,87187,1,0
352,64,87362,1,0
352,64,87537,5,2
352,192,87888,1,2
256,288,88239,1,2
160,192,88589,1,2
160,64,88940,1,4
96,288,90343,5,0
96,224,90518,1,0
96,224,90606,1,0
96,224,90693,2,0,B|192:224,1,90
192,160,91044,2,0,B|96:160,3,90
96,96,91745,1,0
160,96,91921,1,0
160,96,92009,1,0
160,96,92096,2,0,B|256:96,1,90
256,160,92447,2,0,B|256:288,3,90
257,315,93148,5,0
328,316,93324,1,0
328,316,93411,1,0
328,316,93499,2,0,B|328:213,1,90
400,226,93850,2,0,B|399:334,1,90
471,320,94200,2,0,B|471:220,1,90
469,158,94551,2,0,B|365:159,1,90
306,161,94902,2,0,B|187:161,5,90
192,96,95954,6,2,B|128:32|64:96|64:160,1,180
64,259,96480,1,2
15,200,96655,6,2,B|212:203,1,180
304,206,97181,1,2
301,285,97356,6,2,B|240:268|246:209|259:158|261:124,1,180
272,17,97882,1,2
181,20,98058,6,2,B|185:97|346:75,1,180
450,78,98584,1,2
392,17,98759,6,2,B|394:169|296:149,1,180
191,150,99285,1,2
257,205,99460,6,2,B|261:74|159:75,1,180
59,76,99986,1,2
113,15,100162,6,2,B|112:204,1,180
113,305,100688,1,2
41,305,100863,2,2,B|43:238|206:251,1,180
256,64,101915,5,0
256,128,102090,1,0
192,96,102266,1,0
192,160,102441,1,0
256,192,102616,5,0
320,224,102792,1,0
320,288,102967,1,0
256,256,103142,1,0
384,352,103493,2,0,B|224:352|96:288|32:192|32:128,1,450
96,64,104720,5,0
160,64,104896,1,0
224,64,105071,2,0,B|416:64,1,180
416,192,105772,1,0
256,192,106123,1,0
96,192,106474,1,0
32,320,106824,1,4
96,320,107000,1,4
160,320,107175,1,4
256,288,107526,5,0
288,352,107701,1,0
352,352,107876,1,0
320,288,108052,1,0
352,224,108227,5,0
384,160,108402,1,0
320,160,108578,1,0
288,224,108753,1,0
158,159,109104,2,0,B|192:53|272:7|356:5|414:10|466:52|507:100|530:132,1,450
448,352,110331,6,0,B|256:352,2,180
268,352,111383,2,0,B|64:352,2,180
256,192,112435,1,0
256,192,112610,1,0
256,192,112786,1,0
160,64,113136,5,0
224,128,113312,1,0
288,64,113487,1,0
352,128,113663,1,0
352,64,113838,1,0
288,128,114013,1,0
224,64,114189,1,0
160,128,114364,1,0
256,256,114715,1,2
256,256,115416,1,2
64,320,115942,5,0
64,320,116117,1,0
64,320,116293,1,0
192,320,116643,1,0
320,320,116994,2,4,B|448:320,1,90
416,256,117345,2,4,B|320:256,1,90
320,320,117695,2,4,B|416:320,1,90
416,256,118046,2,4,B|320:256,1,90
320,320,118397,1,4
256,192,118747,5,0
256,32,119098,1,0
128,96,119449,1,0
64,224,119799,1,0
128,352,120150,1,0
256,384,120501,1,0
384,352,120851,1,0
448,224,121202,1,0
384,96,121553,1,0
384,96,121728,1,0
384,96,121903,2,0,B|224:224,1,180
128,288,122605,2,4,B|32:192|160:128,4,180
416,320,124358,5,0
416,256,124533,1,0
416,192,124709,2,0,B|416:64,1,90
352,96,125059,1,0
352,160,125235,1,0
352,224,125410,2,0,B|352:320,1,90
215,361,125936,2,0,B|121:313|60:258|50:190|57:109|129:48|227:33,1,450
256,64,127163,5,0
256,64,127339,1,0
256,64,127514,1,0
256,64,127865,1,0
160,160,128215,1,0
256,256,128566,1,0
352,160,128917,1,0
256,64,129267,1,0
288,128,129443,1,0
224,128,129618,1,0
96,320,129969,5,0
96,256,130144,1,0
96,192,130319,2,0,B|96:96,1,90
160,96,130670,1,0
160,160,130845,1,0
160,224,131021,2,0,B|160:320,1,90
298,354,131547,2,0,B|395:353|449:262|454:152|440:85|393:54|351:26|289:24,1,450
256,320,132774,5,0
256,320,132949,1,0
256,320,133125,1,0
256,320,133475,1,0
128,192,133826,1,0
192,192,134001,1,0
192,192,134089,1,0
192,192,134177,1,0
256,192,134352,1,0
256,192,134527,2,0,B|384:192,4,90
160,64,135580,5,0
224,64,135755,1,0
192,128,135930,1,0
256,128,136106,1,0
288,64,136281,1,0
320,128,136456,1,0
384,128,136632,1,0
352,64,136807,1,0
467,150,137158,2,0,B|452:262|334:273|228:264|132:258|109:115,1,450
224,320,138385,5,0
288,320,138560,1,0
352,320,138736,1,0
480,320,139086,1,0
480,192,139437,1,0
480,64,139788,1,0
384,128,140138,1,0
288,64,140489,1,0
288,128,140664,1,0
288,192,140840,1,0
352,320,141190,5,0
320,256,141366,1,0
256,256,141541,1,0
288,320,141716,1,0
224,320,141892,1,0
192,256,142067,1,0
160,320,142242,1,0
128,256,142418,1,0
32,128,142768,2,0,B|122:18|325:9|378:74|443:157,1,450
256,192,143996,5,0
256,192,144171,1,0
256,192,144346,1,0
256,192,144697,1,0
256,32,145048,1,2
128,96,145398,1,2
192,224,145749,1,2
320,224,146100,1,2
384,96,146450,1,4
