osu file format v5

[General]
AudioFilename: 6e7069d69233a06f4489c6287f835b59.mp3
AudioLeadIn: 0
PreviewTime: -1
Countdown: 1
SampleSet: Normal
StackLeniency: 0.7
Mode: 0

[Metadata]
Title:Caipirinha
Artist:NicoNicoDouga
Creator:Mifune24
Version:Hard
Source:
Tags:

[Difficulty]
HPDrainRate:6
CircleSize:5
OverallDifficulty:6
SliderMultiplier:1.5
SliderTickRate:1

[Events]
//Background and Video events
1,-31000,"0c4fff672fc6a2a882bebfb8d8b4dac7.avi"
//Break Periods
2,48477,55992
2,78975,83685
//Storyboard Layer 0 (Background)
//Storyboard Layer 1 (Failing)
//Storyboard Layer 2 (Passing)
//Storyboard Layer 3 (Foreground)
//Storyboard Sound Samples
//Background Colour Transformations
3,100,163,162,255

[TimingPoints]
6182,350.672121566335,4,1,0,37

[Colours]
Combo1 : 255,255,0
Combo2 : 5,240,5
Combo3 : 5,5,240
Combo4 : 240,5,5

[HitObjects]
192,64,6532,1,0
256,64,6708,1,0
320,64,6883,1,0
320,192,7234,1,0
256,192,7409,1,0
192,192,7584,1,0
71,325,8110,2,0,B|275:375|474:323,1,375
416,256,9338,5,0
416,192,9513,1,0
416,128,9688,2,0,B|320:96|256:128,1,150
192,192,10390,1,0
96,128,10740,1,0
0,192,11091,1,0
96,256,11442,1,2
96,256,11617,1,2
96,256,11792,1,2
192,320,12143,5,0
256,320,12318,1,0
320,320,12494,1,0
320,192,12844,1,0
256,192,13020,1,0
192,192,13195,1,0
75,54,13721,2,0,B|301:2|468:68,1,375
448,160,14948,5,0
448,224,15124,1,0
448,288,15299,2,0,B|352:320|288:288,1,150
192,256,16000,1,0
96,192,16351,1,0
192,128,16702,1,0
288,192,17052,1,2
288,192,17228,1,2
288,192,17403,1,2
416,192,17754,6,0,B|416:96,2,75
416,256,18280,1,4
416,256,18455,1,4
288,256,18806,1,0
160,256,19156,2,0,B|160:160,2,75
160,320,19682,1,4
160,320,19858,1,4
32,288,20208,2,0,B|32:192,5,75
32,160,21260,1,0
32,32,21611,1,0
128,96,21962,1,0
224,32,22312,1,0
224,96,22488,1,0
224,160,22663,1,0
224,224,22838,1,0
224,288,23014,1,0
256,192,23189,12,0,25293
32,192,25819,5,0
160,192,26520,1,0
288,192,27222,1,0
416,192,27923,1,2
416,192,28099,1,2
480,192,28449,1,4
320,256,28975,5,0
320,192,29151,1,0
320,128,29326,1,0
192,128,29677,1,0
192,192,29852,1,0
192,256,30027,1,0
51,368,30553,2,0,B|-8:188|40:69|70:-3,1,375
192,64,31781,5,0
256,64,31956,1,0
320,64,32131,1,0
256,160,32482,1,0
192,256,32833,2,4,B|352:256,2,150
192,352,33885,1,2
256,352,34060,1,2
320,352,34235,1,2
384,256,34586,5,0
352,192,34761,1,0
320,128,34937,1,0
192,128,35287,1,0
160,192,35463,1,0
128,256,35638,1,0
256,384,36164,2,0,B|256:0,1,375
384,160,37391,5,0
320,160,37567,1,0
256,160,37742,2,0,B|256:320,1,150
128,320,38443,1,0
0,320,38794,1,0
0,192,39145,1,0
128,192,39495,1,0
128,128,39671,1,0
128,64,39846,1,0
320,64,40372,6,2,B|448:192,1,150
384,224,40898,1,2
320,224,41073,1,2
192,64,41775,2,2,B|64:192,1,150
128,224,42301,1,2
192,224,42476,1,2
256,128,43353,6,0,B|256:288,1,150
128,288,44054,2,0,B|128:128,1,150
160,32,44755,2,0,B|320:32,1,150
416,32,45457,1,0
416,352,46684,1,0
416,352,46859,1,0
96,352,48262,1,4
128,160,57029,5,0
128,224,57204,1,0
192,224,57380,1,0
320,224,57730,1,0
384,224,57906,1,0
384,160,58081,1,0
416,57,58607,2,0,B|190:10|30:66,1,375
96,160,59834,5,0
96,224,60010,1,0
96,288,60185,1,0
96,288,60536,1,0
192,224,60886,1,0
288,160,61237,1,0
384,224,61588,1,0
480,160,61938,1,0
480,96,62114,1,0
480,32,62289,1,0
352,32,62640,5,0
320,96,62815,1,0
288,160,62990,1,0
160,32,63341,1,0
192,96,63516,1,0
224,160,63692,1,0
48,198,64218,2,0,B|305:252|450:196,1,375
224,288,65445,6,0,B|320:288,2,75
96,288,66146,1,0
192,352,66497,2,4,B|352:352,2,150
288,288,67549,1,2
352,288,67724,1,2
416,288,67900,1,2
416,192,68250,5,0
320,192,68513,2,0,B|256:128|192:288|128:160,1,187.5
64,128,69302,1,0
160,64,69653,2,0,B|224:160|224:32|320:96,1,150
352,96,70179,1,0
352,96,70354,1,0
416,192,70705,5,0
352,288,71056,1,0
256,224,71407,1,0
224,352,71757,1,0
128,288,72108,1,0
192,192,72459,1,0
320,224,72809,1,0
416,288,73160,1,0
448,160,73511,5,0
352,96,73861,2,0,B|288:160|224:0|64:128,1,300
32,224,74913,1,0
128,288,75264,2,0,B|192:224|224:320|288:256,1,150
320,256,75790,1,0
320,256,75965,1,0
416,192,76316,5,0
320,128,76667,1,0
384,32,77017,1,0
256,64,77368,1,0
288,192,77719,1,0
160,160,78069,1,0
224,256,78420,1,0
352,224,78771,1,0
128,64,84732,5,0
128,288,85433,1,0
384,288,86135,1,0
384,64,86836,1,0
160,192,87537,1,2
256,288,87888,1,2
352,192,88239,1,2
256,96,88589,1,2
160,192,88940,1,4
32,256,90343,6,0,B|32:352,2,75
32,192,90869,1,0
32,192,91044,1,0
160,192,91395,1,0
288,192,91745,2,0,B|288:288,2,75
288,128,92272,1,0
288,128,92447,1,0
416,128,92798,1,0
416,256,93148,6,0,B|512:256,2,75
352,256,93674,1,0
352,256,93850,1,0
224,256,94200,1,0
96,256,94551,2,0,B|0:256,2,75
160,256,95077,1,0
160,256,95252,1,0
288,256,95603,1,4
416,256,95954,6,2,B|480:192|416:96,1,150
375,92,96480,1,2
320,64,96655,2,2,B|256:0|160:64,1,150
136,89,97181,1,2
96,128,97356,2,2,B|32:192|96:288,1,150
132,303,97882,1,2
184,331,98058,2,2,B|287:373|352:306,1,150
371,284,98584,1,2
384,224,98759,2,2,B|320:160|224:224,1,150
187,235,99285,1,2
128,256,99460,2,2,B|64:192|128:96,1,150
147,70,99986,1,2
199,40,100162,2,2,B|277:4|358:49,1,150
384,92,100688,1,2
350,146,100863,2,2,B|265:194|186:125,1,150
160,64,101915,5,0
192,128,102090,1,0
224,64,102266,1,0
352,64,102616,1,0
288,64,102792,1,0
320,128,102967,1,0
484,200,103493,2,0,B|259:261|82:190,1,375
96,288,104720,5,0
96,288,104896,1,0
96,288,105071,1,0
224,288,105422,1,0
352,288,105772,1,0
480,288,106123,1,0
416,192,106474,1,0
288,192,106824,1,4
288,192,107000,1,4
288,192,107175,1,4
160,192,107526,5,0
96,192,107701,1,0
96,192,107876,1,0
96,64,108227,1,0
160,64,108402,1,0
160,64,108578,1,0
339,64,109104,2,0,B|423:88|477:140|495:203|490:260|461:335|393:349,1,375
192,320,110331,5,0
192,320,110506,1,0
128,320,110682,1,0
0,320,111032,1,0
0,192,111383,2,0,B|0:32,1,150
128,32,112084,2,0,B|128:192,1,150
128,182,112610,1,0
128,182,112786,1,0
256,192,113136,5,2
224,256,113312,1,2
192,320,113487,1,2
288,256,113838,1,2
320,192,114013,1,2
352,128,114189,1,2
200,30,114715,2,2,B|86:31|25:122|23:202|29:259|32:330,1,375
96,288,115942,6,0,B|192:288,1,75
224,288,116293,1,0
352,288,116643,1,0
352,160,116994,2,4,B|192:160,4,150
256,256,118747,5,0
206,290,118923,1,0
156,323,119098,1,0
96,224,119449,1,0
147,192,119624,1,0
197,158,119799,1,0
128,64,120150,1,0
128,64,120325,2,2,B|512:64,1,375
448,256,121553,5,0
398,222,121728,1,0
349,186,121903,1,0
352,320,122254,1,0
256,256,122605,1,0
256,128,122955,1,0
160,192,123306,1,0
64,128,123657,1,0
22,171,123832,1,0
1,227,124007,1,0
256,192,124358,12,0,126637
96,160,127163,5,0
160,160,127339,1,0
224,160,127514,1,0
352,160,127865,1,0
384,288,128215,1,0
256,352,128566,1,0
128,288,128917,1,0
256,224,129267,1,0
256,224,129443,1,0
256,224,129618,1,0
256,192,129969,12,0,132248
256,96,132774,2,0,B|192:160,1,75
256,192,133125,2,0,B|384:64,1,150
352,192,133826,1,0
352,256,134001,1,0
352,320,134177,1,0
224,320,134527,1,0
160,320,134703,1,0
96,320,134878,1,0
96,256,135054,1,0
96,192,135229,1,0
160,128,135580,5,0
160,64,135755,1,0
224,64,135930,2,0,B|320:64,1,75
352,64,136281,5,0
352,128,136456,1,0
288,128,136632,2,0,B|192:128,1,75
128,224,137158,2,2,B|448:224,1,300
416,352,138385,6,0,B|320:352,1,75
288,352,138736,2,0,B|128:352,1,150
64,256,139437,1,2
192,256,139788,1,2
320,256,140138,1,2
256,160,140489,1,2
192,160,140664,1,2
128,160,140840,1,2
256,64,142242,5,0
160,64,142505,1,0
128,160,142768,1,0
192,160,142944,1,0
288,160,143207,1,0
320,256,143470,1,0
256,256,143645,1,0
160,256,143908,1,0
192,352,144171,1,0
256,352,144346,1,0
64,192,145048,5,2
192,192,145398,1,2
320,192,145749,1,2
448,192,146100,1,4
448,192,146275,1,4
448,192,146450,1,4
