osu file format v5

[General]
AudioFilename: 6e7069d69233a06f4489c6287f835b59.mp3
AudioLeadIn: 0
PreviewTime: -1
Countdown: 1
SampleSet: Normal
StackLeniency: 0.7
Mode: 0

[Metadata]
Title:Caipirinha
Artist:NicoNicoDouga
Creator:Mifune24
Version:Easy
Source:
Tags:

[Difficulty]
HPDrainRate:2
CircleSize:4
OverallDifficulty:4
SliderMultiplier:1.4
SliderTickRate:1

[Events]
//Background and Video events
1,-31000,"0c4fff672fc6a2a882bebfb8d8b4dac7.avi"
//Break Periods
2,48477,55992
2,78624,83415
//Storyboard Layer 0 (Background)
//Storyboard Layer 1 (Failing)
//Storyboard Layer 2 (Passing)
//Storyboard Layer 3 (Foreground)
//Storyboard Sound Samples
//Background Colour Transformations
3,100,163,162,255

[TimingPoints]
6182,350.672121566335,4,1,0,37

[Colours]
Combo1 : 255,255,0
Combo2 : 5,240,5
Combo3 : 5,5,240
Combo4 : 240,5,5

[HitObjects]
128,64,6532,5,0
352,64,7234,1,0
416,224,8110,2,0,B|32:224,1,350
96,288,10390,5,2
256,288,11091,1,2
416,288,11792,1,2
384,160,12143,5,0
160,160,12844,1,0
96,32,13721,2,0,B|480:32,1,350
128,192,16000,5,0
256,192,16702,1,0
384,192,17403,1,4
384,32,18104,6,2,B|224:96|96:32,1,280
64,128,19507,2,2,B|224:192|352:128,1,280
384,224,20910,2,2,B|256:288|96:224,1,280
64,320,22312,2,2,B|224:384|352:320,1,280
256,192,23364,12,0,25468
256,64,25819,5,0
448,192,26520,1,0
256,320,27222,1,0
96,192,27923,1,2
96,192,28449,1,4
256,96,28975,5,0
256,288,29677,1,0
416,320,30553,2,0,B|512:192|448:32|384:0,1,350
32,192,32833,5,0
128,128,33534,1,0
128,256,34235,1,0
256,160,34586,5,0
256,160,35287,1,0
128,320,36164,2,4,B|0:160|160:0,1,350
256,320,38443,6,4,B|160:320|160:224,4,140
352,96,40372,6,2,B|192:96,1,140
96,96,41073,1,2
96,288,41775,2,2,B|256:288,1,140
352,288,42476,1,2
318,193,44054,6,4,B|253:128|192:199,4,140
256,256,46684,1,2
256,256,46859,1,2
256,352,48262,1,4
256,64,57029,5,2
160,128,57730,1,2
160,128,58081,1,2
96,224,58607,2,2,B|256:320|448:224,1,350
448,96,59834,5,0
448,320,60536,1,0
320,320,60886,2,0,B|160:320,4,140
320,192,62640,5,0
160,192,63341,1,0
160,192,63692,1,0
64,64,64218,2,2,B|256:0|416:64,1,350
384,192,65445,6,0,B|384:352,2,140
256,192,66497,1,2
256,192,67198,1,2
256,192,67900,1,4
256,320,68250,6,0,B|128:320|64:192|96:128,1,280
192,64,69302,2,0,B|352:64|384:224|384:256,1,280
384,352,70354,1,0
256,64,73861,6,0,B|160:64|96:96|96:256,1,280
192,320,74913,1,0
288,320,75264,2,0,B|416:320|448:224|448:128,1,280
256,192,78420,5,4
160,64,84732,5,0
384,64,85433,1,0
384,288,86135,1,0
160,288,86836,1,0
352,160,87537,2,2,B|192:160,4,140
128,64,90343,5,0
32,160,91044,1,0
160,224,91745,1,0
224,352,92447,1,0
352,288,93148,1,0
224,192,93850,1,0
384,224,94551,1,0
320,96,95252,1,0
160,96,95954,6,2,B|352:320,1,280
160,288,97356,2,2,B|384:64,1,280
384,192,98759,2,2,B|96:192,1,280
256,320,100162,2,2,B|256:32,1,280
96,192,101915,5,2
224,192,102616,1,2
224,192,102967,1,2
352,96,103493,2,4,B|480:192|480:320|352:384,1,350
96,224,105772,6,0,B|96:128|192:128,4,140
192,224,107526,5,0
320,224,108227,1,0
320,224,108578,1,0
256,352,109104,1,2
256,352,109805,1,4
256,96,111383,1,0
256,192,112084,1,0
256,288,112786,1,0
160,224,113136,6,0,B|160:64,3,140
256,64,114715,1,0
384,64,115416,1,0
416,192,116994,6,0,B|128:192,2,280
192,288,118747,5,0
320,288,119449,1,0
384,288,119799,1,0
384,128,120325,2,0,B|288:32|160:32|64:128,1,350
256,64,122605,6,4,B|160:64|128:160,1,140
256,160,123306,2,4,B|352:160|384:256,1,140
256,256,124007,1,4
256,192,124358,12,0,126637
32,192,128215,5,0
256,192,128917,1,0
480,192,129618,1,0
256,192,129969,12,0,132248
480,192,133826,5,0
256,192,134527,1,0
32,192,135229,1,0
256,192,135580,12,0,137859
256,192,138385,5,2
256,192,138736,1,2
256,192,139086,1,2
256,192,139437,2,4,B|256:352,4,140
256,192,141190,12,0,143470
128,192,145048,5,2
192,192,145398,1,2
256,192,145749,1,2
320,192,146100,1,2
384,192,146450,1,4
