osu file format v8

[General]
AudioFilename: Bad Hammer!!.mp3
AudioLeadIn: 0
PreviewTime: -1
Countdown: 1
SampleSet: Soft
StackLeniency: 0.7
Mode: 0
LetterboxInBreaks: 1

[Editor]
DistanceSpacing: 1
BeatDivisor: 4
GridSize: 8

[Metadata]
Title:Bad hammer!!
Artist:NicoNicoDouga
Creator:matthewhln
Version:Collab
Source:
Tags:Touhou

[Difficulty]
HPDrainRate:5
CircleSize:5
OverallDifficulty:7
ApproachRate:7
SliderMultiplier:1.6
SliderTickRate:1

[Events]
//Background and Video events
0,0,"hammer1.jpg"
Video,0,"Bad Hammer!!.avi"
//Break Periods
2,15613,28426
2,56917,62773
2,85177,90599
//Storyboard Layer 0 (Background)
//Storyboard Layer 1 (Fail)
//Storyboard Layer 2 (Pass)
//Storyboard Layer 3 (Foreground)
//Storyboard Sound Samples
//Background Colour Transformations
3,100,163,162,255

[TimingPoints]
1500,434.782608695652,4,2,0,70,1,0
15195,-100,4,1,0,70,0,0
29108,-100,4,1,0,50,0,0
63239,-100,4,2,0,50,0,0
70086,-100,4,2,0,30,0,0
70249,-100,4,2,0,35,0,0
70358,-100,4,2,0,40,0,0
70467,-100,4,2,0,45,0,0
70576,-100,4,2,0,50,0,0
70684,-100,4,2,0,55,0,0
70793,-100,4,2,0,60,0,0
70902,-100,4,2,0,65,0,0
71010,-100,4,2,1,45,0,0
71282,-100,4,2,0,35,0,0
77804,-100,4,2,0,45,0,0
91065,-200,4,2,0,40,0,0
92152,-200,4,2,0,25,0,0
93021,-200,4,2,0,40,0,0
93891,-200,4,2,0,25,0,0
94760,-200,4,2,0,40,0,0
95630,-200,4,2,0,25,0,0
96499,-200,4,2,0,35,0,0
96934,-200,4,2,0,45,0,0
97369,-200,4,2,0,55,0,0
97804,-200,4,2,0,65,0,0
98239,-100,4,2,0,55,0,0
105195,-100,4,2,0,70,0,0
111173,-100,4,2,0,85,0,0
111608,-100,4,2,0,100,0,0
111826,-100,4,2,0,90,0,0

[Colours]
Combo1 : 54,54,54
Combo2 : 128,128,128
Combo3 : 192,192,192

[HitObjects]
16,56,1500,2,0,B|184:56,1,160
336,56,2369,1,0
256,192,2804,1,0
256,216,2913,1,0
256,240,3021,1,0
256,264,3130,1,0
256,288,3239,1,0
128,192,3673,5,0
384,192,4108,1,0
256,96,4543,2,0,B|256:48|200:48,2,80,2|0|0
256,288,5413,1,0
96,288,5847,2,0,B|40:264|40:184|96:152,1,160
112,136,6391,1,0
136,128,6499,1,0
168,128,6608,1,0
192,136,6717,1,0
352,272,7152,6,0,B|392:192|344:104,1,160
176,48,8021,2,0,B|136:32|88:56,2,80,2|0|0
352,120,8891,2,0,B|371:177|306:236|250:211,1,160
192,168,9543,1,0
192,168,9652,2,0,B|128:144|80:200,1,120,2|0
48,272,10195,1,0
96,336,10413,6,0,B|136:360|184:360,1,80,0|2
200,288,10847,1,0
272,256,11065,1,0
352,256,11282,1,0
352,256,11391,1,0
352,256,11499,1,2
424,216,11717,1,0
384,144,11934,6,0,B|296:8,2,160,0|2|0
424,216,13021,1,0
424,216,13130,2,0,B|456:248|440:312|392:320,1,120,2|0
328,336,13673,1,0
256,192,13891,12,0,15413
80,24,29326,6,0,B|32:104|80:192,1,160,0|8
144,208,29978,2,0,B|88:272,2,80
200,152,30630,1,8
256,208,30847,1,0
312,152,31065,2,0,B|372:218|398:305,1,160,0|8
424,360,31717,1,0
424,360,31934,1,0
256,240,32369,5,8
80,352,32804,2,0,B|80:280|16:280|16:192,1,160,0|8
32,128,33456,1,0
88,72,33673,1,0
160,112,33891,1,0
224,64,34108,2,0,B|272:152,2,80,8|0|0
160,112,34760,6,0,B|112:200,1,80,0|2
200,184,35195,2,0,B|248:272,2,80,0|2|0
120,176,35847,1,2
160,112,36065,1,0
240,120,36282,6,0,B|384:248,1,160,4|8
320,296,36934,1,0
402,294,37152,1,0
444,223,37369,1,0
404,154,37586,1,8
322,156,37804,1,0
272,224,38021,2,0,B|221:253|157:204|171:145,2,160,0|8|0
320,160,39108,5,0
400,152,39326,2,0,B|386:108|354:83,1,80,8|0
296,40,39760,2,0,B|227:62|242:107|166:132,1,160,4|8
104,184,40413,2,0,B|32:96,2,80
152,248,41065,1,8
216,200,41282,1,0
256,272,41499,5,0
376,64,41934,1,8
136,64,42369,2,0,B|80:64,6,53.3333333333333,4|0|0|4|0|0|4
192,128,43456,5,8
256,176,43673,1,0
280,200,43782,1,0
288,232,43891,1,8
280,264,43999,1,0
256,288,44108,1,0
176,312,44326,2,0,B|128:302|100:281,1,80,8|0
80,208,44760,5,8
72,176,44869,1,0
88,144,44978,1,0
136,80,45195,1,8
216,56,45413,1,0
248,56,45521,1,0
280,64,45630,1,8
304,88,45739,1,0
312,120,45847,2,0,B|312:168|288:200,1,80,0|8
200,176,46282,2,0,B|200:224|224:256,1,80,0|8
336,304,46717,5,4
408,272,46934,1,8
440,200,47152,1,0
448,168,47260,1,0
448,136,47369,1,8
432,104,47478,1,0
408,80,47586,1,0
344,152,47804,1,8
248,112,48021,5,0
240,144,48129,1,0
240,176,48238,1,8
256,208,48347,1,0
280,232,48455,1,0
368,288,48673,1,8
280,344,48891,2,0,B|256:360|232:360,4,40,0|0|8|0|0
192,288,49543,1,8
280,208,49760,1,8
368,288,49978,1,8
416,200,50195,6,0,B|312:64,1,160,4|2
96,200,51065,2,0,B|200:64,1,160,4|2
256,328,51934,5,4
256,248,52152,2,0,B|168:192,2,80,0|8|0
328,280,52804,1,0
392,232,53021,1,0
472,256,53239,2,0,B|496:176|472:80,1,160,8|4
440,24,53891,5,0
368,64,54108,1,2
296,40,54326,1,0
240,96,54543,1,0
312,128,54760,2,0,B|272:176,2,40,0|0|2
368,64,55195,1,0
416,128,55413,5,4
200,22,55847,1,2
95,238,56282,1,4
310,343,56717,1,2
144,88,63673,6,0,B|192:136|240:64|280:128,1,120,8|0
280,120,64108,1,0
352,160,64326,2,0,B|413:136|435:209,2,80,0|8|0
336,176,64869,1,0
320,192,64978,1,2
256,240,65195,1,0
184,272,65413,5,8
112,240,65630,1,0
112,216,65739,1,0
112,192,65847,1,2
112,112,66065,2,0,B|88:64|160:40,1,80,0|8
216,64,66499,1,0
240,72,66608,1,0
264,80,66717,2,0,B|344:104|376:168,1,120,2|0
376,168,67152,5,8
440,224,67369,1,0
440,304,67586,1,2
368,344,67804,1,0
344,344,67913,1,0
320,344,68021,1,8
248,304,68239,1,0
248,224,68456,2,0,B|208:153|158:151,1,120,2|0
136,144,68891,1,8
64,168,69108,5,0
24,240,69326,1,2
64,312,69543,1,0
88,320,69652,1,0
112,328,69760,1,8
192,344,69978,1,0
448,128,70195,5,2
424,136,70304,1,2
400,144,70413,1,2
376,152,70521,1,2
352,160,70630,1,2
328,168,70739,1,2
304,176,70847,1,2
280,184,70956,1,2
256,192,71065,5,4
16,192,71499,1,4
256,192,71934,1,4
496,192,72369,1,4
256,192,72804,5,4
80,360,73239,1,4
256,192,73673,1,4
424,16,74108,1,4
256,192,74543,5,4
416,368,74978,1,4
256,192,75413,1,4
88,16,75847,1,4
256,192,76282,5,4
488,136,76717,1,4
256,192,77152,1,4
24,136,77586,1,4
256,192,78021,5,4
216,152,78239,1,2
296,152,78456,1,4
296,232,78673,1,2
216,232,78891,1,4
176,120,79108,1,2
336,120,79326,1,4
336,264,79543,1,2
176,264,79760,1,4
136,88,79978,1,2
376,88,80195,1,4
376,296,80413,1,2
136,296,80630,1,4
136,88,80847,1,2
216,64,81065,5,4
288,88,81282,2,0,B|352:104|360:168,1,80,2|4
392,200,81717,1,2
400,240,81826,1,0
384,272,81934,1,4
320,320,82152,1,2
248,288,82369,2,0,B|216:248|152:256,1,80,4|2
168,336,82804,2,0,B|120:344|80:288,1,80,4|2
64,232,83239,5,4
104,168,83456,2,0,B|120:136|160:144,1,40,0|2
160,216,83782,2,0,B|160:184|200:176,1,40,0|2
240,240,84108,2,0,B|224:216|248:184,2,40,2|0|2
320,216,84543,2,0,B|416:184|440:96,1,160,4|6
56,104,91499,6,0,B|112:88|144:128,1,80,2|0
72,168,92369,2,0,B|112:208|160:192,1,80,2|0
192,128,93239,6,0,B|240:136|264:184,1,80,2|0
192,216,94108,2,0,B|208:272|264:272,1,80,2|0
168,288,94978,6,0,B|200:336|248:328,1,80,2|0
312,328,95847,2,0,B|360:327|384:279,1,80,2|0
312,248,96717,6,0,B|356:223|373:180,1,80,2|2
304,152,97586,2,0,B|340:117|338:74,1,80,2|4
56,80,98456,6,0,B|24:128|40:184,1,80,8|0
56,232,98891,2,0,B|88:288|160:312,1,120
168,312,99326,1,8
248,328,99543,1,0
328,312,99760,1,0
392,264,99978,1,0
392,240,100086,1,0
392,216,100195,5,8
424,144,100413,1,0
376,80,100630,2,0,B|288:32|232:40,1,120
240,40,101064,1,8
160,48,101282,2,0,B|96:64|72:112,1,80
40,144,101716,1,0
40,168,101826,1,0
40,192,101934,5,8
72,264,102151,1,0
120,328,102369,2,0,B|192:280|176:224,1,120
176,208,102804,1,8
184,128,103021,2,0,B|224:80|272:96,1,80
328,104,103456,1,0
352,112,103565,1,0
376,120,103673,5,8
432,176,103891,1,0
424,256,104108,2,0,B|368:312|304:320,1,120
296,320,104543,1,8
216,336,104760,2,0,B|176:352|128:320,1,80
120,312,105086,1,0
104,296,105195,1,8
88,280,105304,1,0
72,264,105413,6,0,B|30:212|71:167,1,80,8|0
64,112,105847,2,0,B|112:56|176:72,1,120,2|0
192,72,106282,1,8
272,96,106499,1,0
336,144,106717,1,2
360,176,106826,1,0
376,208,106934,1,0
376,248,107043,1,0
368,288,107152,5,8
288,264,107369,1,0
208,240,107586,2,0,B|144:288|88:264,1,120,2|0
72,256,108021,1,8
16,200,108239,2,0,B|0:144|48:112,1,80,0|2
48,112,108565,1,0
72,96,108673,1,0
96,80,108782,1,0
120,64,108891,5,8
192,32,109108,1,0
272,40,109326,2,0,B|352:40|384:104,1,120,2|0
392,112,109760,1,8
320,152,109977,1,0
248,192,110195,1,2
264,208,110304,1,0
288,224,110412,1,0
312,232,110521,1,0
336,232,110630,1,8
408,192,110847,5,8
104,192,111065,1,2
384,144,111282,1,2
128,240,111500,1,2
344,112,111717,1,2
168,272,111935,1,6
256,192,112369,1,6
