osu file format v5

[General]
AudioFilename: Just Be Friends.mp3
AudioLeadIn: 0
PreviewTime: 20204
Countdown: 0
SampleSet: Normal
StackLeniency: 0.8
Mode: 0
LetterboxInBreaks: 0
EditorBookmarks: 20204,112645,125673,140204,207996,211043,233777,234012,234246,272449
EditorDistanceSpacing: 1

[Metadata]
Title:Just Be Friends
Artist:NicoNico Chorus, Megurine Luka
Creator:Shinxyn
Version:Normal
Source:
Tags:

[Difficulty]
HPDrainRate:3
CircleSize:4
OverallDifficulty:5
SliderMultiplier:1.2
SliderTickRate:2

[Events]
//Background and Video events
Video,-64,"smile.avi"
0,0,"megurine_luka vocaloid.jpg"
//Break Periods
2,50920,64052
2,112796,124529
2,154991,169529
2,204679,214529
//Storyboard Layer 0 (Background)
//Storyboard Layer 1 (Fail)
//Storyboard Layer 2 (Pass)
//Storyboard Layer 3 (Foreground)
//Storyboard Sound Samples
//Background Colour Transformations
3,100,163,162,255

[TimingPoints]
565,468.75,4,1,1,70,1,0
34384,-100,4,2,1,70,0,0
50067,-100,4,2,1,70,0,0
50887,-100,4,2,1,90,0,0
54540,-100,4,2,1,100,0,0
65087,-100,4,2,1,70,0,0
65790,-100,4,1,1,50,0,0
72821,-100,4,1,1,60,0,0
80673,-100,4,1,1,70,0,1
95087,-100,4,1,1,60,0,0
95204,-100,4,1,1,70,0,1
102470,-100,4,1,1,70,0,0
108446,-100,4,1,1,80,0,0
109267,-100,4,1,1,90,0,0
112431,-100,4,1,1,50,0,0
125729,468.75,4,1,1,60,1,0
129598,-100,4,1,1,40,0,0
132972,-100,4,2,1,90,0,0
134496,-100,4,2,1,100,0,0
140262,-100,4,1,1,70,0,0
140848,-100,4,1,1,60,0,0
148113,-100,4,2,1,70,0,0
149754,-100,4,2,1,70,0,0
151629,-100,4,1,1,50,0,0
155848,-100,4,1,1,60,0,0
166629,-100,4,1,1,70,0,0
170707,-100,4,1,1,70,0,1
177410,-100,4,2,1,70,0,0
181160,-100,4,2,1,80,0,0
185589,-100,4,1,1,70,0,1
192410,-100,4,1,1,60,0,0
194988,-100,4,1,1,50,0,0
198621,-100,4,1,1,70,0,1
204363,-100,4,1,1,50,0,0
215589,-100,4,2,1,80,0,0
233636,-200,4,1,1,50,0,0
234715,-100,4,1,1,70,0,0
269847,-200,4,1,1,50,0,0

[Colours]
Combo1 : 88,58,112
Combo2 : 249,177,254
Combo3 : 250,50,215

[HitObjects]
322,148,20252,1,0
376,168,20486,1,0
432,192,20721,1,0
384,296,21190,5,8
272,256,21658,1,0
160,216,22127,1,8
160,152,22361,6,0,B|240:168|224:80,1,120
288,80,23065,1,8
288,136,23299,1,0
344,160,23533,1,0
448,208,24002,6,8,B|448:120,2,60,8|0|0
344,264,24940,5,8
280,264,25174,1,0
216,264,25408,2,0,B|144:264,2,60,0|0|8
216,320,26111,6,0,B|152:352|88:320,1,120
48,288,26815,1,8
48,288,27049,1,0
104,264,27283,2,0,B|160:208|96:152,1,120,0|8
48,128,27986,2,0,B|72:80|120:104,1,60
216,96,28690,6,8,B|288:88|352:144,2,120,8|0|8
216,152,29861,6,8,B|240:216|320:224,1,120,0|0
368,224,30565,1,8
368,280,30799,1,0
304,280,31033,2,8,B|238:287|214:351,1,120,0|8
152,352,31736,2,8,B|80:352,1,60,0|0
96,232,32440,5,8
96,168,32674,1,0
96,104,32908,1,0
216,104,33377,5,8
216,168,33611,1,0
216,232,33846,1,0
336,232,34315,6,8,B|416:232,4,60,8|8|8|2|8
368,176,35486,1,8
328,64,35955,5,0
272,96,36190,1,8
216,128,36424,2,0,B|196:162|232:208,1,60,0|0
248,240,36893,1,0
288,280,37127,2,0,B|296:320|264:336,1,60,8|0
328,336,37596,2,0,B|352:304|344:256,4,60,0|0|8|0|0
384,336,38768,5,0
440,336,39002,2,8,B|472:264|432:192,1,120,8|0
440,160,39705,5,0
384,128,39940,1,8
320,120,40174,2,0,B|240:120,2,60
320,184,40877,1,8
256,184,41111,2,0,B|184:184,2,60
256,248,41815,1,8
192,248,42049,2,0,B|128:248,2,60
192,312,42752,1,8
312,312,43221,6,0,B|448:312,1,120,0|8
432,248,43924,2,0,B|432:168,2,60
368,248,44627,1,8
304,248,44861,6,0,B|216:192|112:264,1,180,0|8
24,296,46033,2,0,B|8:245|24:216,2,60,0|0|8
48,352,46736,5,0
104,352,46971,1,0
160,352,47205,1,0
184,296,47440,2,0,B|256:296,1,60,8|0
304,296,47908,1,0
304,296,48143,1,0
320,240,48377,2,0,B|400:240,2,60,8|0|0
256,239,49080,6,0,B|234:224|266:184,1,60,0|8
320,184,49549,2,0,B|384:184,1,60,0|0
288,128,50252,6,0,B|232:112|216:144,2,60,2|2|4
88,320,65252,6,2,B|144:264,2,60,2|2|4
40,280,65955,5,0
40,216,66190,2,0,B|40:136,2,60,8|0|0
96,216,66893,1,0
152,216,67127,1,8
208,216,67361,2,0,B|272:216,1,60
320,248,67830,5,0
320,184,68065,1,8
368,216,68299,1,0
368,152,68533,2,0,B|368:88,1,60
424,112,69002,2,0,B|424:200,1,60,8|4
368,280,69705,6,0,B|456:280,1,60,0|0
368,280,70174,2,0,B|280:280,2,60
256,240,71111,6,0,B|224:288|192:280,1,60,0|0
152,248,71580,2,0,B|184:288|136:320,1,60,0|0
104,296,72049,2,0,B|72:328|120:360,2,60
40,192,72986,5,0
96,192,73221,1,0
64,136,73455,2,0,B|48:112|80:72,1,60
120,72,73924,2,0,B|168:64|184:96,2,60
224,136,74861,5,0
256,184,75096,2,0,B|296:152|288:112,1,60
344,136,75565,1,0
400,136,75799,2,0,B|392:200|352:192,2,60
288,88,76736,5,0
168,88,77205,1,0
168,208,77674,1,0
168,328,78143,1,0
256,192,78611,12,4,80721
96,200,81658,5,0
152,176,81893,1,0
208,152,82127,1,0
264,128,82361,2,0,B|296:88|336:112,1,60,0|0
368,80,82830,2,0,B|424:72|432:40,1,60,0|0
416,120,83299,5,0
312,168,83768,1,0
200,216,84236,1,0
80,264,84705,1,0
200,312,85174,6,0,B|400:312,1,180
440,312,86112,2,0,B|536:232|424:152,1,180
264,88,87518,5,0
200,96,87752,1,0
136,104,87986,2,0,B|136:176,1,60
136,224,88455,1,0
144,280,88690,1,0
160,336,88924,2,0,B|240:336,1,60
280,336,89393,1,0
392,280,89861,2,0,B|480:280,4,60
392,160,91268,5,0
336,176,91502,1,0
280,160,91736,1,0
168,160,92205,5,0
224,144,92440,1,0
280,160,92674,1,0
280,280,93143,6,0,B|352:280,1,60
340,339,93611,2,0,B|263:338,1,60,0|0
224,312,94080,1,0
168,336,94315,1,0
168,280,94549,1,0
72,200,95018,5,0
72,136,95252,1,0
120,104,95486,1,0
128,160,95721,2,0,B|128:240,1,60
128,160,96190,2,0,B|216:160,1,60
187,218,96658,5,0
243,218,96893,1,0
304,216,97127,1,0
328,168,97361,2,0,B|360:128|400:176,1,60
360,216,97830,2,0,B|336:296|336:296,1,60,0|0
328,328,98299,2,0,B|288:352|256:320,1,60
272,280,98768,2,0,B|224:272|208:320,1,60
216,232,99236,2,0,B|192:192|152:208,1,60
136,160,99705,2,0,B|112:112|72:120,1,60,0|0
88,64,100174,6,0,B|240:48|360:120|432:184,1,360
464,216,101815,1,0
336,344,102518,5,0
336,280,102752,2,0,B|264:280,2,60
336,216,103455,5,0
280,216,103690,1,0
280,152,103924,2,0,B|344:152,1,60
400,152,104393,2,0,B|408:104|368:88,1,60
280,32,105096,5,0
184,96,105565,1,0
184,96,105799,1,0
64,96,106268,5,0
64,152,106502,1,0
64,208,106736,2,0,B|64:296,1,60
120,264,107205,2,0,B|120:352,1,60
176,328,107674,2,0,B|248:328,2,60
256,240,108611,5,0
256,176,108846,1,0
296,136,109080,1,0
256,88,109315,1,0
216,136,109549,1,4
312,208,110018,5,0
200,208,110486,1,0
256,192,110604,12,4,112596
416,48,125729,6,0,B|416:184,1,120
416,288,126666,1,0
352,288,126900,5,0
288,288,127135,1,0
176,240,127604,1,0
288,200,128072,1,0
288,136,128307,1,0
288,72,128541,1,0
176,104,129010,1,0
8,32,129713,5,0
48,72,129947,1,0
48,128,130182,1,0
120,224,130650,5,0
168,256,130885,1,0
224,256,131119,1,0
288,352,131588,5,0
328,304,131822,1,0
288,256,132057,1,0
328,144,132525,5,0
384,144,132760,1,0
264,144,133229,6,0,B|264:88,4,30,2|2|2|0|0
200,144,133932,1,0
136,144,134166,1,2
136,264,134635,6,0,B|136:328,1,60,2|0
72,328,135104,2,0,B|40:360,4,30,2|2|2|0|0
72,264,135807,6,0,B|72:184,1,60,0|2
72,144,136275,2,0,B|160:144,1,60,0|2
192,144,136744,5,0
248,144,136979,1,2
304,144,137213,2,2,B|344:144,1,30
392,208,137682,5,0
328,208,137916,1,2
264,208,138150,2,2,B|208:208,1,30
160,264,138619,6,2,B|160:336,1,60
160,264,139088,2,2,B|160:184,1,60
160,204,139557,2,2,B|160:136,1,60
280,165,140260,5,0
392,208,140729,6,0,B|416:128|304:96|272:184,1,180
312,280,141900,6,0,B|288:360|400:392|432:304,1,180,0|0
424,264,142838,1,0
464,216,143072,1,0
464,152,143307,1,0
376,72,143775,5,0
312,72,144010,1,0
136,128,144713,5,0
189,160,144947,1,0
189,96,145182,1,0
136,216,145650,6,0,B|64:216,2,60
189,323,146588,5,0
136,288,146822,1,0
189,259,147057,1,0
296,288,147525,2,0,B|376:288,1,60
472,256,148229,6,0,B|416:224|344:224|360:152|280:160|272:88|192:120,1,300,2|2
96,120,149869,2,0,B|168:128|128:192|168:224|192:200|216:160|248:176|256:216|232:264|224:304|280:312|328:288,1,300,2|2
360,296,151275,2,0,B|344:248|432:232|392:176,1,120,2|0
360,144,151979,1,0
360,80,152213,2,0,B|360:32,1,30
272,80,152682,5,0
208,80,152916,1,0
144,80,153150,2,0,B|96:80,1,30
144,160,153619,5,0
144,216,153854,1,0
184,264,154088,1,0
240,288,154322,1,0
296,272,154557,1,0
344,240,154791,1,0
256,224,170729,5,0
256,280,170963,1,0
309,252,171197,2,0,B|448:252,1,120
432,192,171900,1,0
432,128,172135,1,0
376,96,172369,1,0
280,168,172838,1,0
176,112,173307,5,0
144,224,173775,2,0,B|232:224,1,60
264,224,174244,1,0
352,304,174713,2,0,B|296:248,1,60
264,224,175182,6,0,B|400:232|456:184,1,180
392,152,176119,2,0,B|304:152,1,60
272,152,176588,2,0,B|184:152,1,60
84,278,177525,5,2
140,278,177760,1,2
196,278,177994,1,2
316,278,178463,5,0
372,278,178697,1,2
428,278,178932,1,2
432,176,179400,5,2
384,64,179869,1,0
384,120,180104,1,2
264,120,180572,1,2
264,64,180807,1,0
160,120,181275,5,0
160,176,181510,1,2
160,232,181744,1,2
160,120,182213,5,0
104,120,182447,1,2
48,120,182681,1,2
160,120,183150,5,0
216,120,183385,1,2
272,120,183619,1,0
328,120,183854,2,0,B|328:184,1,60,2|0
328,240,184322,2,0,B|328:320,1,60,0|2
432,240,185025,6,0,B|432:160,2,60,2|0|2
432,296,185729,2,0,B|432:368,2,60
312,296,186666,1,0
248,296,186900,1,0
184,296,187135,1,0
120,296,187369,2,0,B|32:280|80:200,1,120
136,104,188307,6,0,B|208:56,1,60
136,104,188775,1,0
256,88,189244,6,0,B|328:40,1,60,0|0
256,88,189713,1,0
256,208,190182,5,0
312,216,190416,2,0,B|360:251|336:288,1,60
320,320,190885,5,0
264,312,191119,2,0,B|232:296|240:240,1,60,0|0
256,208,191588,2,0,B|248:168|208:144,1,60
80,48,192525,5,0
80,104,192760,1,0
80,160,192994,1,0
176,232,193463,5,0
176,288,193697,1,0
176,344,193932,1,0
296,344,194400,1,0
400,288,194869,6,0,B|400:200,1,60
400,168,195338,2,0,B|400:88,2,60
280,192,196275,5,0
216,192,196510,1,0
152,192,196744,2,0,B|104:192,1,30
216,192,197213,5,0
216,248,197447,1,0
216,304,197682,2,0,B|216:360,1,30
304,304,198150,1,0
256,192,198619,12,0,200025
256,192,200494,12,0,204479
256,72,215729,6,0,B|312:72,4,30,2|2|2|2|8
256,128,216432,1,0
256,184,216666,1,8
256,296,217135,6,0,B|312:296,4,30,2|0|0|0|8
256,240,217838,1,0
256,184,218072,1,0
256,184,218775,1,4
496,192,219713,5,2
456,240,219947,1,8
416,192,220182,1,0
376,240,220416,1,8
200,192,221119,5,2
232,160,221354,2,0,B|232:248,2,60,2|0|2
288,160,222057,2,0,B|288:240,2,60,2|0|2
344,160,222760,2,0,B|344:240,2,60,0|0|4
344,96,223463,6,0,B|432:96,1,60,0|8
344,96,223932,2,0,B|272:96,1,60,0|2
224,96,224400,1,0
224,96,224635,1,8
224,152,224869,5,0
224,152,225104,1,2
224,208,225338,2,0,B|224:288,1,60,0|10
224,328,225807,2,0,B|304:328,2,60,0|8|2
64,168,226744,5,0
112,200,226979,1,8
64,232,227213,1,2
160,168,227682,5,2
112,200,227916,1,10
160,240,228150,1,2
272,200,228619,6,0,B|352:200,1,60,0|10
448,200,229322,2,0,B|392:264,2,60,0|0|2
256,192,230260,12,0,233307
40,192,233775,6,0,B|80:224|96:160|144:208,1,90,0|4
248,192,234947,1,0
368,184,235416,1,0
416,216,235650,1,0
416,152,235885,1,0
464,184,236119,1,0
464,304,236588,5,0
344,304,237057,1,0
224,304,237525,1,0
104,304,237994,1,0
104,184,238463,1,0
104,64,238932,6,0,B|176:48|224:64,1,120
280,88,239635,1,0
328,120,239869,2,0,B|360:136|392:176,1,60
400,208,240338,1,0
400,264,240572,1,0
232,192,241275,6,0,B|232:280,2,60
112,192,242213,2,0,B|112:112,2,60,0|0|0
112,192,243150,1,0
208,128,243619,5,0
264,128,243854,1,0
264,184,244088,1,0
320,184,244322,1,0
320,240,244557,1,0
264,344,245025,5,0
240,288,245260,1,0
176,288,245494,2,0,B|176:216,1,60
176,168,245963,2,0,B|176:248,1,60
176,168,246432,2,0,B|176:104,1,60
232,104,246900,5,0
280,72,247135,1,0
328,104,247369,1,0
376,136,247604,2,0,B|432:136|456:112,1,60
416,184,248072,1,0
432,240,248307,1,0
368,344,248775,5,0
328,304,249010,1,0
288,344,249244,1,0
248,304,249479,1,0
144,240,249947,6,0,B|216:208|216:152,1,120
264,120,250650,1,0
216,88,250885,1,0
168,56,251119,2,0,B|104:64|80:120|88:160,1,120
40,240,252057,5,0
40,296,252291,1,0
80,336,252525,1,0
192,288,252994,5,0
232,248,253229,1,0
288,264,253463,1,0
408,264,253932,6,0,B|488:264,1,60
464,200,254400,1,0
408,200,254635,1,0
408,264,254869,2,0,B|328:264,1,60
344,200,255338,1,0
280,200,255572,1,0
112,264,256275,5,0
112,200,256510,1,0
168,200,256744,2,0,B|216:200,1,30
256,264,257213,5,0
256,200,257447,1,0
312,200,257682,2,0,B|368:200,1,30
432,200,258150,1,0
432,320,258619,6,0,B|344:320,2,60
432,320,259322,1,0
432,320,259557,1,0
320,264,260025,5,0
256,264,260260,1,0
192,264,260494,2,0,B|120:264,1,60
104,208,260963,5,0
160,208,261197,1,0
216,208,261432,2,0,B|304:208,2,60
216,88,262369,5,0
272,112,262604,1,0
320,144,262838,1,0
344,200,263072,1,0
360,256,263307,1,0
248,208,263775,1,0
256,192,264244,12,0,266354
80,136,266588,5,0
128,104,266822,1,0
184,96,267057,1,0
216,96,267174,1,0
304,104,267525,1,0
352,136,267760,1,0
256,192,267994,12,0,269635
256,192,269869,12,4,272447
