osu file format v8

[General]
AudioFilename: yuuhisaka.mp3
AudioLeadIn: 0
PreviewTime: 6079
Countdown: 0
SampleSet: Soft
StackLeniency: 0.6
Mode: 0
LetterboxInBreaks: 0

[Editor]
Bookmarks: 11596,55397,124699,146768,157811,168148,192286,214355,237803,259182,281941
DistanceSpacing: 1
BeatDivisor: 4
GridSize: 8

[Metadata]
Title:Yuuhi Zaka
Artist:NicoNico Chorus, Hatsune Miku
Creator:[Ghost]
Version:Hard
Source:
Tags:doriko samipale Alace quintitem Tonoko AngelHoney xierbaliti

[Difficulty]
HPDrainRate:8
CircleSize:5
OverallDifficulty:6
ApproachRate:6
SliderMultiplier:1.2
SliderTickRate:1

[Events]
//Background and Video events
0,0,"bg.jpg"
Video,0,"yuuhizaka.avi"
//Break Periods
2,158011,167451
//Storyboard Layer 0 (Background)
//Storyboard Layer 1 (Fail)
//Storyboard Layer 2 (Pass)
//Storyboard Layer 3 (Foreground)
Sprite,Foreground,Centre,"Lyrics\05_01.png",320,240 F,0,146776,147121,0,1 M,0,146776,151949,174,180,174,212 F,0,147121,151604,1 F,0,151604,151949,1,0
Sprite,Foreground,Centre,"Lyrics\05_02.png",320,240 F,0,151604,151949,0,1 M,0,151604,158156,213,275,213,229 F,0,151949,157811,1 F,0,157811,158156,1,0
Sprite,Foreground,Centre,"Lyrics\05_03.png",320,240 F,0,158156,158501,0,1 M,0,158156,162983,502,300,502,331 F,0,158501,162638,1 F,0,162638,162983,1,0
Sprite,Foreground,Centre,"Lyrics\05_04.png",320,240 F,0,162638,162983,0,1 M,0,162638,168501,469,275,469,244 F,0,162983,168156,1 F,0,168156,168501,1,0
Sprite,Foreground,Centre,"Lyrics\06_01.png",320,240 F,0,168156,168501,0,1 M,0,168156,171259,333,319,358,319 F,0,168501,170914,1 F,0,170914,171259,1,0
Sprite,Foreground,Centre,"Lyrics\06_02.png",320,240 F,0,170914,171259,0,1 M,0,170914,174018,444,352,413,352 F,0,171259,173673,1 F,0,173673,174018,1,0
Sprite,Foreground,Centre,"Lyrics\06_03.png",320,240 F,0,173673,174018,0,1 M,0,173673,179535,309,382,357,382 F,0,174018,179190,1 F,0,179190,179535,1,0
Sprite,Foreground,Centre,"Lyrics\06_04.png",320,240 F,0,179190,179535,0,1 M,0,179190,182294,484,87,462,87 F,0,179535,181949,1 F,0,181949,182294,1,0
Sprite,Foreground,Centre,"Lyrics\06_05.png",320,240 F,0,181949,182294,0,0.95744 M,0,181949,185052,317,120,341,120 F,0,182294,184707,0.95744,1 F,0,184707,185052,1,0
Sprite,Foreground,Centre,"Lyrics\06_06.png",320,240 F,0,184707,185052,0,1 M,0,184707,190225,517,150,485,150 F,0,185052,189880,1 F,0,189880,190225,1,0
Sprite,Foreground,Centre,"Lyrics\06_07.png",320,240 F,0,190052,190397,0,1 M,0,190052,192638,476,187,476,202 S,0,190052,192638,1.21504,1.26624 F,0,190397,192294,1 F,0,192294,192638,1,0
Sprite,Foreground,Centre,"Lyrics\07_01.png",320,240 S,0,192466,,1 F,0,192466,192811,0,1 M,0,192466,195397,446,228,446,204 F,0,192811,195052,1 F,0,195052,195397,1,0
Sprite,Foreground,Centre,"Lyrics\07_02.png",320,240 F,0,195225,195569,0,1 M,0,195225,198156,478,244,478,268 F,0,195569,197811,1 F,0,197811,198156,1,0
Sprite,Foreground,Centre,"Lyrics\07_03.png",320,240 F,0,197983,198328,0,1 M,0,197983,200914,415,180,415,157 F,0,198328,200569,1 F,0,200569,200914,1,0
Sprite,Foreground,Centre,"Lyrics\07_04.png",320,240 F,0,200742,201087,0,0.9472001 M,0,200742,203673,445,196,445,220 F,0,201087,203328,0.9472001,1 F,0,203328,203673,1,0
Sprite,Foreground,Centre,"Lyrics\07_05.png",320,240 F,0,203501,203845,0,1 M,0,203501,206432,542,356,542,332 F,0,203845,206087,1 F,0,206087,206432,1,0
Sprite,Foreground,Centre,"Lyrics\07_06.png",320,240 F,0,206259,206604,0,1 M,0,206259,209880,509,213,509,243 F,0,206604,209535,1 F,0,209535,209880,1,0
Sprite,Foreground,Centre,"Lyrics\07_07.png",320,240 F,0,210052,210397,0,0.90112 M,0,210052,214707,542,179,542,228 F,0,210397,214363,0.90112,1 F,0,214363,214707,1,0
Sprite,Foreground,Centre,"Lyrics\08_01.png",320,240 F,0,214535,214880,0,1 M,0,214535,220225,380,143,421,143 F,0,214880,219880,1 F,0,219880,220225,1,0
Sprite,Foreground,Centre,"Lyrics\08_02.png",320,240 F,0,220052,220397,0,1 M,0,220052,225742,374,175,349,175 F,0,220397,225397,1 F,0,225397,225742,1,0
Sprite,Foreground,Centre,"Lyrics\08_03.png",320,240 F,0,225569,225914,0,1 M,0,225569,231259,502,207,469,207 F,0,225914,230914,1 F,0,230914,231259,1,0
Sprite,Foreground,Centre,"Lyrics\08_04.png",320,240 F,0,231259,231604,0,0.96768 M,0,231259,238156,388,174,349,174 F,0,231604,237811,0.96768,1 F,0,237811,238156,1,0
//Storyboard Sound Samples
//Background Colour Transformations
3,100,163,162,255

[TimingPoints]
570,689.655172413793,4,2,1,80,1,0
11596,-50,4,2,1,60,0,0
21776,-50,4,1,1,30,0,0
22466,-50,4,2,1,60,0,0
32811,-50,4,1,1,40,0,0
33673,-50,4,2,1,60,0,0
44363,-50,4,2,1,51,0,0
45052,-50,4,2,1,80,0,0
79535,-50,4,1,1,60,0,0
80914,-50,4,2,1,80,0,0
146776,-50,4,2,1,30,0,0
146949,-50,4,2,1,60,0,0
151776,-50,4,1,1,30,0,0
152121,-50,4,2,1,60,0,0
156949,-50,4,1,1,30,0,0
157811,-50,4,2,1,20,0,0
168181,-50,4,2,1,60,0,0
189363,-50,4,2,1,80,0,0
190914,-50,4,2,1,0,0,0
192638,-50,4,1,1,50,0,0
193845,-50,4,2,1,80,0,0
237811,-100,4,2,1,40,0,0

[Colours]
Combo1 : 255,255,255
Combo2 : 255,214,113
Combo3 : 255,0,0

[HitObjects]
136,104,11604,1,2
96,216,11949,1,0
112,272,12121,1,0
168,288,12294,1,0
288,304,12638,1,2
408,272,12983,5,0
424,96,13328,1,2
272,0,13673,1,2
464,144,14363,5,0
376,224,14707,1,2
256,256,15052,1,0
256,320,15397,5,2
144,256,15742,1,0
80,152,16087,1,2
56,32,16432,1,2
448,328,17121,6,0,B|448:192,1,120,2|0
448,208,17638,1,0
448,208,17811,1,0
448,208,18156,1,2
352,280,18501,1,0
240,320,18845,1,2
112,328,19190,1,2
113,332,19880,5,2
409,35,20225,1,0
196,247,20569,1,2
322,120,20914,1,0
258,183,21259,2,0,B|362:279,1,120,2|0
264,352,21949,1,0
224,312,22121,1,0
264,352,22294,1,0
360,280,22638,5,2
400,168,22983,1,0
384,112,23156,1,0
336,80,23328,1,0
240,16,23673,1,2
120,16,24018,5,0
64,192,24363,1,2
128,360,24707,1,2
64,128,25397,5,0
168,64,25742,1,2
280,32,26087,1,0
280,96,26432,5,2
384,152,26776,1,0
456,248,27121,1,2
504,360,27466,1,2
56,48,28156,6,0,B|128:56|144:136,1,120,0|2
80,128,28673,1,0
24,152,28845,2,0,B|32:224|112:240,1,120,0|2
8,312,29535,1,0
120,344,29880,1,2
240,352,30225,1,2
406,334,30914,5,0
108,36,31259,1,2
320,248,31604,1,2
192,120,31949,1,0
256,184,32294,2,0,B|352:104,1,120,2|0
256,32,32983,1,0
208,72,33156,1,0
160,112,33328,2,0,B|113:58,2,60,0|0|4
64,184,34018,6,0,B|16:240|64:296,1,120,0|2
61,292,34707,1,0
160,360,35052,1,0
264,296,35397,6,0,B|312:240|264:184,1,120,0|2
160,136,36087,1,0
224,40,36432,1,0
344,24,36776,1,0
448,80,37121,2,0,B|512:40,2,60,2|0|0
464,200,37811,1,0
384,288,38156,2,0,B|328:344,2,60,0|0|2
264,312,38845,5,0
216,344,39018,1,0
160,336,39190,1,0
64,264,39535,1,0
96,80,39880,2,0,B|24:104|24:192,2,120,2|0|0
208,48,40914,1,0
320,88,41259,1,2
360,200,41604,1,0
256,256,41949,6,0,B|336:352,1,120
424,272,42638,2,0,B|344:176,1,120,2|0
256,96,43328,1,0
176,184,43673,1,2
176,184,44018,1,2
416,192,44707,5,4
240,32,45397,2,0,B|336:120,1,120,2|0
240,192,46087,2,0,B|136:96,1,120
151,110,46604,1,0
151,110,46776,1,2
120,224,47121,1,0
208,304,47466,1,0
328,288,47811,1,0
368,176,48156,1,2
416,64,48501,5,0
416,64,48673,1,0
416,64,48845,1,2
312,120,49190,2,0,B|376:88,2,60,0|0|2
192,112,49880,5,0
136,112,50052,1,0
192,112,50225,1,0
40,112,50914,6,0,B|40:40|80:16|128:16,1,120,2|0
216,24,51604,2,0,B|235:20|275:44|275:116,1,120
184,192,52294,1,2
64,192,52638,1,0
120,296,52983,2,0,B|120:368,2,60
240,296,53673,5,2
360,296,54018,1,0
360,296,54190,1,0
360,296,54363,2,0,B|400:328|440:328|472:288,2,120,0|0|2
256,232,55397,6,0,B|304:104,1,120,0|0
298,119,56087,2,0,B|216:16,1,120,0|8
223,25,56776,1,0
176,136,57121,1,0
128,248,57466,2,0,B|96:320,2,60,0|0|8
240,296,58156,5,0
352,344,58501,1,0
464,296,58845,1,0
352,256,59190,2,0,B|352:128,1,120,8|0
352,136,59880,1,0
352,136,60225,1,0
352,136,60397,1,0
352,136,60570,1,8
176,136,60914,5,0
264,216,61259,2,0,B|264:80,1,120
176,16,61949,2,0,B|176:144,1,120,8|0
88,216,62638,5,0
176,136,62983,1,0
176,256,63328,1,8
80,328,63673,1,0
176,256,64018,2,0,B|152:232|80:232|48:264,2,120,0|0|8
296,256,65052,6,0,B|256:304,2,60,0|0|0
400,320,65742,1,0
456,296,65914,1,0
480,240,66087,1,8
400,152,66432,6,0,B|400:24,1,120
328,128,67121,1,0
296,80,67294,1,0
264,32,67466,1,8
144,32,67811,5,0
88,136,68156,2,0,B|120:168|168:168|200:136,2,120,0|0|8
24,240,69190,5,0
88,344,69535,1,0
144,240,69880,1,0
144,240,70225,1,8
88,128,70570,1,0
160,32,70914,1,0
88,128,71259,1,0
112,184,71432,1,0
168,184,71604,1,8
288,192,71949,5,0
408,192,72294,1,0
288,192,72638,2,0,B|216:192,2,60,0|0|8
344,88,73328,1,0
376,32,73501,1,0
344,88,73673,1,0
288,192,74018,1,0
256,240,74190,1,0
288,192,74363,1,8
232,88,74707,6,0,B|216:48|184:24|128:32,1,120
137,30,75397,1,0
72,128,75742,6,0,B|88:168|120:192|176:184,1,120,8|0
288,184,76432,1,2
288,304,76776,1,2
392,240,77121,2,0,B|192:240,1,180,8|0
256,192,77811,12,0,79190
368,192,79707,5,0
312,208,79880,1,0
304,264,80052,1,0
352,296,80225,1,0
408,280,80397,1,0
416,224,80570,1,4
264,40,81259,5,8
144,72,81604,1,0
80,168,81949,1,0
112,288,82638,6,0,B|48:288,2,60,8|0|2
208,208,83328,1,0
304,128,83673,1,0
208,208,84018,1,8
304,128,84363,1,0
400,56,84707,1,0
400,56,85052,2,0,B|400:192,2,120,0|8|0
400,176,86087,5,0
328,80,86432,1,0
208,56,86776,1,8
104,112,87121,2,0,B|24:112,2,60,0|0|0
104,232,87811,5,0
104,352,88156,2,0,B|32:352|0:280,2,120,8|0|0
160,248,89190,1,0
200,288,89363,1,0
256,304,89535,1,8
256,304,89880,1,2
256,184,90225,1,4
344,264,90570,6,0,B|384:296|424:296|464:256,2,120,0|8|0
256,184,91604,1,0
168,96,91949,2,0,B|120:48,2,60,0|0|8
80,176,92638,2,0,B|128:224,2,60,0|0|0
200,208,93328,1,0
272,304,93673,1,8
384,352,94018,5,0
424,312,94190,1,0
416,256,94363,1,0
376,144,94707,1,0
376,144,94880,1,0
376,144,95052,2,0,B|408:120|464:120|496:152,2,120,8|0|0
272,88,96087,5,0
40,32,96432,1,8
80,264,96776,1,0
80,264,96949,1,0
80,264,97121,2,0,B|120:288|152:288|200:264,2,120,0|0|8
136,152,98156,1,0
240,88,98501,1,0
352,80,98845,6,0,B|360:40|400:32,2,60,0|0|8
376,136,99363,1,0
400,192,99535,2,0,B|392:232|352:240,2,60,0|0|0
504,256,100225,5,0
448,256,100397,1,0
400,288,100570,1,8
296,352,100914,1,0
216,264,101259,5,0
216,264,101432,1,0
216,264,101604,2,0,B|184:288|128:288|96:256,2,120,0|8|0
160,160,102638,6,0,B|160:224,2,60,0|0|0
160,160,103156,1,0
160,160,103328,1,8
104,56,103673,1,0
160,40,103845,1,0
216,56,104018,1,0
320,112,104363,6,0,B|352:136|416:136|448:104,2,120,0|8|0
320,232,105397,2,0,B|352:256|416:256|448:224,1,120,0|0
400,184,105914,1,0
368,136,106087,2,0,B|349:114|285:114|253:138,1,120,8|0
176,224,106776,6,0,B|157:245|93:245|61:221,2,120,0|0|8
248,320,107811,1,0
248,320,107983,1,0
248,320,108156,2,0,B|376:320,1,120,0|0
368,200,108845,5,8
456,120,109190,1,0
456,120,109363,1,0
456,120,109535,2,0,B|320:120,1,120,0|0
336,56,110052,1,0
280,88,110225,2,0,B|152:88,1,120,8|0
80,176,110914,5,0
80,115,111087,1,0
80,55,111259,1,0
80,176,111604,2,0,B|80:304,2,120,8|0|0
80,176,112638,1,0
168,96,112983,5,8
224,72,113156,1,0
264,120,113328,1,0
232,176,113501,1,0
176,160,113673,2,0,B|144:128|80:128|48:176,2,120,0|0|8
176,280,114707,1,0
176,280,115052,2,0,B|208:304|264:304|312:272,2,120,0|0|8
280,216,116087,5,0
280,216,116259,1,0
280,216,116432,2,0,B|416:216,1,120,0|0
400,216,117121,5,8
256,24,117466,1,0
112,216,117811,1,0
112,96,118156,6,0,B|40:96|0:24,2,120,0|8|0
216,152,119190,2,0,B|176:216|72:208,2,120,0|0|8
280,56,120225,1,0
160,64,120570,1,0
72,152,120914,1,0
192,144,121259,1,8
248,128,121432,1,0
296,160,121604,1,0
304,216,121776,1,0
256,248,121949,1,0
256,192,122121,12,4,124018
96,96,124707,6,0,B|96:240,1,120,2|2
96,216,125225,1,0
96,216,125397,1,0
144,328,125742,1,2
256,360,126087,1,0
368,320,126432,1,2
424,216,126776,1,2
256,40,127466,5,0
200,32,127811,1,2
120,64,128156,1,0
72,160,128501,1,2
96,288,128845,1,0
240,344,129190,1,2
416,304,129535,1,2
216,176,130225,6,0,B|160:120|216:48,1,120,0|2
256,80,130742,1,0
312,72,130914,1,0
408,144,131259,1,2
304,208,131604,1,0
184,224,131949,1,2
64,192,132294,1,2
256,48,132983,5,2
128,112,133328,1,0
64,240,133673,1,2
144,360,134018,1,2
208,232,134363,1,0
336,160,134707,2,0,B|336:22,2,120
440,256,135742,6,0,B|440:112,1,120,2|0
440,136,136259,1,0
440,136,136432,1,0
352,56,136776,1,2
232,56,137121,2,0,B|128:152,1,120,0|2
143,137,137811,1,2
256,344,138501,5,0
312,352,138846,1,2
392,320,139191,1,0
440,224,139536,1,2
416,96,139880,1,0
272,40,140225,1,2
96,80,140570,1,2
192,160,141259,6,0,B|336:160,1,120,0|0
376,160,141776,1,2
312,160,141949,1,2
312,280,142294,1,2
312,160,142638,1,0
208,96,142983,1,2
200,216,143328,1,2
408,104,144018,6,0,B|296:164,1,120,0|2
392,240,144707,6,0,B|301:159,1,120,0|2
256,192,145397,12,4,146776
88,296,147121,6,0,B|32:240,2,60,0|0|2
88,176,147811,1,0
88,56,148156,2,0,B|40:8,2,60
208,40,148845,1,2
232,64,149018,1,0
256,88,149190,1,0
368,56,149535,6,0,B|448:64|472:160,1,120
464,184,150052,1,0
464,244,150225,2,0,B|456:316|368:332,1,120,2|0
272,328,150914,1,0
260,268,151087,1,0
227,217,151259,1,0
177,182,151432,1,0
120,161,151604,1,2
0,160,151949,5,0
0,160,152121,1,0
0,160,152294,2,0,B|8:88|96:64,1,120
112,200,152983,1,0
112,200,153156,1,0
112,200,153328,2,0,B|152:144|248:160,1,120
168,264,154018,2,0,B|128:320|56:312,2,120
168,144,155052,5,2
224,40,155397,1,0
336,8,155742,1,2
448,56,156087,2,0,B|496:8,2,60
488,168,156776,1,2
464,288,157121,1,0
411,318,157294,1,0
368,275,157466,1,0
395,221,157638,1,0
454,231,157811,1,4
488,152,168501,5,2
376,104,168845,1,0
264,136,169190,1,0
152,168,169535,1,8
40,128,169880,2,0,B|0:72|24:-8,1,120,0|0
40,128,170570,1,0
72,176,170742,1,0
80,232,170914,1,8
8,328,171259,5,0
120,296,171604,1,0
240,328,171949,1,0
360,336,172294,1,8
472,304,172638,2,0,B|472:168,1,120,0|0
472,184,173328,1,0
416,192,173501,1,0
360,168,173673,1,8
432,72,174018,6,0,B|400:48|344:48|304:80,1,120
376,176,174707,1,0
432,280,175052,2,0,B|409:305|337:305|297:265,1,120,8|2
319,281,175570,1,0
319,281,175742,2,0,B|180:281,1,120
120,192,176432,5,8
48,96,176776,1,0
168,80,177121,2,0,B|168:16,2,60,0|0|0
240,176,177811,2,0,B|368:176,1,120,8|0
424,176,178328,1,0
424,112,178501,2,0,B|288:112,1,120,0|0
240,112,179018,1,0
240,112,179190,1,8
144,184,179535,6,0,B|32:280,1,120,0|2
272,360,180225,1,2
456,200,180570,1,8
376,112,180914,5,0
296,200,181259,1,0
296,200,181604,2,0,B|360:200,2,60,2|0|8
264,312,182294,5,0
344,224,182638,1,0
376,112,182983,1,0
344,224,183328,1,8
264,312,183673,1,0
176,224,184018,1,0
128,112,184363,2,0,B|112:80|112:48,2,60,0|0|8
104,232,185052,5,2
64,344,185397,2,0,B|88:296|176:296,1,120,0|2
167,296,185914,2,0,B|248:296|272:248,1,120,0|0
271,249,186432,1,2
384,296,186776,1,2
424,184,187121,2,0,B|480:152,2,60,0|0|8
424,64,187811,6,0,B|280:64,1,120,0|0
304,64,188328,1,0
304,64,188501,2,0,B|176:64,1,120,2|8
184,184,189190,1,0
96,104,189535,2,0,B|32:136|32:208,2,120,0|0|8
152,72,190397,1,0
216,72,190570,1,2
272,104,190742,1,0
256,192,190914,12,0,192294
384,320,192811,6,0,B|400:256,1,60
336,272,193156,2,0,B|328:200,1,60
272,240,193501,1,0
272,240,193673,2,0,B|224:128,1,120,0|0
344,128,194363,5,8
408,32,194707,1,0
376,80,194880,1,0
344,128,195052,1,0
224,128,195397,6,0,B|256:104|256:48|216:16,2,120,0|8|0
112,80,196432,1,0
0,32,196776,1,0
112,80,197121,1,8
64,112,197294,1,0
16,144,197466,1,0
128,192,197811,1,0
16,272,198156,5,2
240,352,198501,1,8
464,272,198845,1,0
464,152,199190,6,0,B|464:16,2,120,0|0|8
360,88,200225,1,0
360,88,200397,1,0
360,88,200570,1,0
360,208,200914,2,0,B|416:256,2,60,0|0|8
256,144,201604,1,0
256,144,201949,5,4
48,24,202638,1,8
152,88,202983,1,0
256,144,203328,1,0
152,200,203673,5,0
152,200,203845,1,0
152,200,204018,2,0,B|16:200,2,120,8|0|0
152,200,205052,1,0
48,136,205397,5,8
264,32,205742,1,0
480,136,206087,1,0
376,200,206432,5,0
256,200,206776,2,0,B|208:136,2,60,8|0|0
376,200,207466,1,0
320,304,207811,1,0
200,312,208156,2,0,B|248:384,2,60,8|0|0
152,200,208845,1,0
48,144,209190,5,0
90,101,209535,1,8
147,83,209880,1,0
207,83,210225,1,0
256,192,210570,5,0
256,192,210742,1,0
256,192,210914,1,8
376,192,211259,2,0,B|520:192,1,120
496,72,211949,2,0,B|352:72,1,120,0|8
376,72,212466,1,0
376,72,212638,1,0
256,72,212983,6,0,B|152:176,1,120
171,156,213673,1,8
112,136,214018,1,0
56,160,214363,1,0
144,240,214707,6,0,B|112:264|56:272|16:224,2,120,0|8|0
144,240,215570,1,0
144,240,215742,6,0,B|168:272|224:264|256:240,2,120,0|0|8
144,120,216776,1,0
264,120,217121,1,0
224,296,217638,5,0
256,344,217811,1,8
312,328,217983,1,0
320,272,218156,1,0
264,248,218328,1,0
264,248,218501,6,0,B|224:216|168:224|136:256,2,120,0|0|8
376,296,219535,1,0
488,248,219880,1,0
432,144,220225,1,0
432,144,220570,1,8
432,144,220914,1,0
328,80,221259,5,0
328,80,221604,1,0
208,80,221949,1,8
208,80,222121,1,0
208,80,222294,1,0
136,176,222638,1,0
136,176,222983,1,0
136,176,223328,6,0,B|8:176,2,120,8|0|0
72,280,224363,1,0
72,280,224707,1,8
168,352,225052,2,0,B|304:352,1,120,0|0
384,280,225742,5,0
384,280,225914,1,0
384,280,226087,2,0,B|512:280,2,120,8|0|0
384,160,227121,1,0
352,40,227466,5,8
296,48,227811,1,0
264,96,228156,1,0
248,216,228501,5,0
248,216,228673,1,0
248,216,228845,2,0,B|248:344,2,120,8|0|0
344,288,229880,1,0
344,288,230052,1,0
344,288,230225,1,8
448,232,230570,5,0
448,112,230914,1,0
352,40,231259,1,0
232,40,231604,1,8
136,112,231949,1,0
136,112,232294,6,0,B|96:88|48:88|8:120,2,120,0|0|8
136,232,233328,1,0
136,232,233673,1,0
136,232,234018,1,0
248,192,234363,1,8
248,192,234707,1,0
248,192,234880,1,0
248,192,235052,1,0
256,192,235225,12,4,237811
