osu file format v9

[General]
AudioFilename: yuuhisaka.mp3
AudioLeadIn: 1996
PreviewTime: 6079
Countdown: 0
SampleSet: Soft
StackLeniency: 0.6
Mode: 0
LetterboxInBreaks: 0

[Editor]
Bookmarks: 11596,33673,79190,124699,146768,192286,237803,281941,304018,349535
DistanceSpacing: 1.1
BeatDivisor: 4
GridSize: 8

[Metadata]
Title:Yuuhi Zaka
Artist:NicoNico Chorus, Hatsune Miku
Creator:[Ghost]
Version:Collab
Source:
Tags:doriko samipale Alace quintitem Tonoko AngelHoney xierbaliti

[Difficulty]
HPDrainRate:8
CircleSize:6
OverallDifficulty:6
ApproachRate:8
SliderMultiplier:1.2
SliderTickRate:1

[Events]
//Background and Video events
0,0,"bg.jpg"
Video,0,"yuuhizaka.avi"
//Break Periods
2,135942,146371
//Storyboard Layer 0 (Background)
Sprite,Background,Centre,"SB\yuuhi_2.jpg",320,240 S,0,305569,,0.8 F,0,326258,327637,0,1 F,0,327637,349845,1 F,0,349845,351914,1,0
Sprite,Background,Centre,"SB\finish.png",320,240 F,0,372810,373155,0,1 M,0,373155,,420,207 S,0,373155,,0.75 F,0,373155,374534,1 V,2,374534,374706,1,1,1.3,1 F,1,374534,374879,1,0 V,1,374706,374879,1.3,1,1.8,1
Sprite,Background,Centre,"SB\yuuhi_1.jpg",320,240 F,1,280569,302638,0,1 S,0,280569,302638,0.8,1 F,1,302638,304707,1,0
Sprite,Background,Centre,"SB\Sakura_2.png",320,240 M,0,11259,,552,432 S,0,11259,,0.5 F,0,11604,11949,0,1 R,0,11604,281431,-0.2767244,-216.7049 F,0,11949,136432,1 F,0,136432,136776,1,0 F,0,136776,146087,0 F,0,146087,146432,0,1 F,0,146432,281086,1 F,0,281086,281431,1,0 F,0,281431,281776,0 R,0,281431,304535,-216.7049,-207.8542 F,0,281776,282638,0,1 F,0,282638,304535,1,0.2 F,2,304535,305569,0.2,1 R,2,304535,305569,-207.8542,-206.066 R,0,305569,372810,-206.066,-260 F,0,372465,372810,1,0
Sprite,Background,Centre,"SB\Tonoko.png",320,240 S,0,570,,0.7 M,0,914,,496,425 F,0,146776,147121,0,1 F,0,147121,192638,1 F,0,192638,192983,1,0
Sprite,Background,Centre,"SB\Alace.png",320,240 S,0,570,,0.7 M,0,914,,498,422 F,0,192638,192983,0,1 F,0,192983,237466,1 F,0,237466,237811,1,0
Sprite,Background,Centre,"SB\Sakura.png",320,240 F,0,225,570,0,1 R,0,225,281604,0,226.7723 S,0,570,,0.6 M,2,570,11604,457,416,442,416 F,0,570,136087,1 F,0,136087,136432,1,0 F,0,136432,146432,0,0.04242897 F,0,146432,146776,0.04242897,1 F,0,146776,281259,1 F,0,281259,281604,1,0 F,0,281604,281948,0,0.2494561 F,0,281604,282983,0,1 R,0,281604,304535,226.7723,217.9477 F,0,281948,282983,0,1 F,0,282983,304535,1,0.2 F,2,304535,305569,0.2,1 R,2,304535,305569,217.9477,216.0864 R,0,305569,372465,216.0864,270 F,0,372120,,1 F,0,372120,372465,1,0
Sprite,Background,Centre,"SB\samipale.png",320,240 S,0,570,,0.7 M,0,914,,498,425 F,0,33673,34018,0,1 F,0,34018,79190,1 F,0,79190,79535,1,0
Sprite,Background,Centre,"SB\quintitem.png",320,240 S,0,570,,0.7 M,0,914,,498,423 F,0,79190,79535,0,1 F,0,79535,125052,1 F,0,125052,125397,1,0
Sprite,Background,Centre,"SB\[Ghost].png",320,240 S,0,570,,0.7 M,0,914,,498,425 F,0,125052,125397,0,1 F,0,125397,135742,1,0.9884058 F,0,135742,136087,0.9884058,0
Sprite,Background,Centre,"SB\[Ghost].png",320,240 S,0,570,,0.7 F,1,570,11604,0,1 M,0,914,,498,425 F,0,11604,33673,1 F,0,33673,34018,1,0
Sprite,Background,Centre,"SB\xierbaliti.png",320,240 S,0,570,,0.7 M,0,914,,498,423 F,0,281431,282121,0,1 F,0,282121,304190,1,0.4 F,0,304190,305569,0.4,1 F,0,305569,371775,1 F,0,371775,372120,1,0
Sprite,Background,Centre,"SB\AngelHoney.png",320,240 S,0,570,,0.7 M,0,914,,498,423 F,0,237466,237811,0,1 F,0,237811,280742,1 F,0,280742,281431,1,0
//Storyboard Layer 1 (Fail)
//Storyboard Layer 2 (Pass)
//Storyboard Layer 3 (Foreground)
Sprite,Foreground,Centre,"Lyrics\07_03.png",320,240 F,0,197983,198328,0,1 M,0,197983,200914,415,180,415,157 F,0,198328,200569,1 F,0,200569,200914,1,0
Sprite,Foreground,Centre,"Lyrics\07_04.png",320,240 F,0,200742,201087,0,0.9472001 M,0,200742,203673,445,196,445,220 F,0,201087,203328,0.9472001,1 F,0,203328,203673,1,0
Sprite,Foreground,Centre,"Lyrics\07_01.png",320,240 S,0,192466,,1 F,0,192466,192811,0,1 M,0,192466,195397,446,228,446,204 F,0,192811,195052,1 F,0,195052,195397,1,0
Sprite,Foreground,Centre,"Lyrics\07_02.png",320,240 F,0,195225,195569,0,1 M,0,195225,198156,478,244,478,268 F,0,195569,197811,1 F,0,197811,198156,1,0
Sprite,Foreground,Centre,"Lyrics\07_05.png",320,240 F,0,203501,203845,0,1 M,0,203501,206432,542,356,542,332 F,0,203845,206087,1 F,0,206087,206432,1,0
Sprite,Foreground,Centre,"Lyrics\08_01.png",320,240 F,0,214535,214880,0,1 M,0,214535,220225,380,143,421,143 F,0,214880,219880,1 F,0,219880,220225,1,0
Sprite,Foreground,Centre,"Lyrics\08_02.png",320,240 F,0,220052,220397,0,1 M,0,220052,225742,374,175,349,175 F,0,220397,225397,1 F,0,225397,225742,1,0
Sprite,Foreground,Centre,"Lyrics\07_06.png",320,240 F,0,206259,206604,0,1 M,0,206259,209880,509,213,509,243 F,0,206604,209535,1 F,0,209535,209880,1,0
Sprite,Foreground,Centre,"Lyrics\07_07.png",320,240 F,0,210052,210397,0,0.90112 M,0,210052,214707,542,179,542,228 F,0,210397,214363,0.90112,1 F,0,214363,214707,1,0
Sprite,Foreground,Centre,"Lyrics\06_01.png",320,240 F,0,168156,168501,0,1 M,0,168156,171259,333,319,358,319 F,0,168501,170914,1 F,0,170914,171259,1,0
Sprite,Foreground,Centre,"Lyrics\06_02.png",320,240 F,0,170914,171259,0,1 M,0,170914,174018,444,352,413,352 F,0,171259,173673,1 F,0,173673,174018,1,0
Sprite,Foreground,Centre,"Lyrics\05_03.png",320,240 F,0,158156,158501,0,1 M,0,158156,162983,502,300,502,331 F,0,158501,162638,1 F,0,162638,162983,1,0
Sprite,Foreground,Centre,"Lyrics\05_04.png",320,240 F,0,162638,162983,0,1 M,0,162638,168501,469,275,469,244 F,0,162983,168156,1 F,0,168156,168501,1,0
Sprite,Foreground,Centre,"Lyrics\06_03.png",320,240 F,0,173673,174018,0,1 M,0,173673,179535,309,382,357,382 F,0,174018,179190,1 F,0,179190,179535,1,0
Sprite,Foreground,Centre,"Lyrics\06_06.png",320,240 F,0,184707,185052,0,1 M,0,184707,190225,517,150,485,150 F,0,185052,189880,1 F,0,189880,190225,1,0
Sprite,Foreground,Centre,"Lyrics\06_07.png",320,240 F,0,190052,190397,0,1 M,0,190052,192638,476,187,476,202 S,0,190052,192638,1.21504,1.26624 F,0,190397,192294,1 F,0,192294,192638,1,0
Sprite,Foreground,Centre,"Lyrics\06_04.png",320,240 F,0,179190,179535,0,1 M,0,179190,182294,484,87,462,87 F,0,179535,181949,1 F,0,181949,182294,1,0
Sprite,Foreground,Centre,"Lyrics\06_05.png",320,240 F,0,181949,182294,0,0.95744 M,0,181949,185052,317,120,341,120 F,0,182294,184707,0.95744,1 F,0,184707,185052,1,0
Sprite,Foreground,Centre,"Lyrics\08_03.png",320,240 F,0,225569,225914,0,1 M,0,225569,231259,502,207,469,207 F,0,225914,230914,1 F,0,230914,231259,1,0
Sprite,Foreground,Centre,"Lyrics\10_02.png",320,240 F,0,307120,307465,0,1 M,0,307120,310051,536,293,536,268 F,0,307465,309706,1 F,0,309706,310051,1,0
Sprite,Foreground,Centre,"Lyrics\10_03.png",320,240 F,0,309879,310224,0,0.88064 M,0,309879,312810,502,219,502,196 F,0,310224,312465,0.88064,1 F,0,312465,312810,1,0
Sprite,Foreground,Centre,"Lyrics\10_01.png",320,240 S,0,304362,,1 F,0,304362,304707,0,1 M,0,304362,307293,502,180,502,204 F,0,304707,306948,1 F,0,306948,307293,1,0
Sprite,Foreground,Centre,"Lyrics\10_04.png",320,240 F,0,312637,312982,0,1 M,0,312637,315569,534,235,534,260 F,0,312982,315224,1 F,0,315224,315569,1,0
Sprite,Foreground,Centre,"Lyrics\10_07.png",320,240 F,0,320913,321258,0,1 M,0,320913,327637,501,188,501,235 F,0,321258,324879,1 F,0,324879,327637,1,0
Sprite,Foreground,Centre,"Lyrics\10_05.png",320,240 F,0,315396,315741,0,1 M,0,315396,318327,502,212,502,236 F,0,315741,317982,1 F,0,317982,318327,1,0
Sprite,Foreground,Centre,"Lyrics\10_06.png",320,240 F,0,318155,318500,0,1 M,0,318155,321086,535,268,535,236 F,0,318500,320741,1 F,0,320741,321086,1,0
Sprite,Foreground,Centre,"Lyrics\09_01.png",320,240 M,0,282293,,524,71 F,0,282293,282638,0,0.9728 F,0,282638,287983,0.9728,1 F,0,287983,288328,1,0
Sprite,Foreground,Centre,"Lyrics\09_02.png",320,240 M,0,285052,,541,102 F,0,285052,285397,0,0.95232 F,0,285397,287983,0.95232,1 F,0,287983,288328,1,0
Sprite,Foreground,Centre,"Lyrics\08_04.png",320,240 F,0,231259,231604,0,0.96768 M,0,231259,238156,388,174,349,174 F,0,231604,237811,0.96768,1 F,0,237811,238156,1,0
Sprite,Foreground,Centre,"Lyrics\09_03.png",320,240 M,0,287810,,605,135 F,0,287810,288155,0,0.92672 F,0,288155,293500,0.92672,1 F,0,293500,293845,1,0
Sprite,Foreground,Centre,"Lyrics\09_06.png",320,240 M,0,296086,,462,102 F,0,296086,296431,0,0.73728 F,0,296431,299362,0.73728,1 F,0,299362,299707,1,0
Sprite,Foreground,Centre,"Lyrics\09_07.png",320,240 F,0,299535,299879,0,1 M,0,299535,304535,366,159,366,190 S,0,299535,304535,1.16384,1 F,0,299879,302810,1 F,2,302810,304190,1 F,0,304190,304535,1,0 M,0,304535,,366,190 F,0,304535,,0
Sprite,Foreground,Centre,"Lyrics\09_04.png",320,240 M,0,290569,,589,167 F,0,290569,290914,0,0.95744 F,0,290914,293500,0.95744,1 F,0,293500,293845,1,0
Sprite,Foreground,Centre,"Lyrics\09_05.png",320,240 M,0,293328,,444,71 F,0,293328,293673,0,0.9216 F,0,293673,299362,0.9216,1 F,0,299362,299707,1,0
Sprite,Foreground,Centre,"Lyrics\05_02.png",320,240 F,0,151604,151949,0,1 M,0,151604,158156,213,275,213,229 F,0,151949,157811,1 F,0,157811,158156,1,0
Sprite,Foreground,Centre,"Lyrics\05_01.png",320,240 F,0,146776,147121,0,1 M,0,146776,151949,174,180,174,212 F,0,147121,151604,1 F,0,151604,151949,1,0
//Storyboard Sound Samples
//Background Colour Transformations
3,100,163,162,255

[TimingPoints]
570,689.655172413793,4,2,1,50,1,0
10742,-100,4,1,1,40,0,0
11432,-100,4,2,1,50,0,0
16604,-100,4,1,1,40,0,0
16949,-100,4,2,1,40,0,0
17294,-100,4,2,1,50,0,0
21776,-100,4,1,1,25,0,0
22552,-100,4,2,1,50,0,0
33673,-100,4,2,1,30,0,0
34190,-100,4,2,1,25,0,0
34535,-100,4,2,1,30,0,0
35311,-100,4,2,1,25,0,0
35483,-100,4,2,1,30,0,0
36776,-100,4,2,1,25,0,0
36949,-100,4,2,1,30,0,0
39018,-100,4,2,1,25,0,0
39363,-100,4,2,1,30,0,0
41604,-100,4,2,1,25,0,0
41776,-100,4,2,1,30,0,0
46087,-100,4,2,1,25,0,0
46518,-100,4,2,1,30,0,0
47294,-100,4,2,1,25,0,0
47638,-100,4,2,1,30,0,0
49449,-100,4,2,1,25,0,0
49707,-100,4,2,1,30,0,0
52121,-100,4,2,1,25,0,0
52811,-100,4,2,1,30,0,0
53845,-100,4,2,1,25,0,0
54276,-100,4,2,1,30,0,0
54880,-100,4,1,1,40,0,0
55225,-100,4,1,1,30,0,0
55570,-100,4,2,1,30,0,0
55914,-100,4,2,1,35,0,0
56604,-100,4,2,1,40,0,0
59535,-100,4,2,1,35,0,0
59707,-100,4,2,1,40,0,0
60225,-100,4,2,1,35,0,0
61087,-100,4,2,1,40,0,0
61432,-100,4,2,1,35,0,0
61776,-100,4,2,1,40,0,0
62897,-100,4,2,1,35,0,0
63328,-100,4,2,1,40,0,0
65311,-100,4,2,1,45,0,0
65828,-100,4,2,1,40,0,0
66345,-100,4,2,1,35,0,0
66604,-100,4,2,1,40,0,0
67638,-100,4,2,1,35,0,0
68587,-100,4,2,1,40,0,0
69018,-100,4,2,1,35,0,0
69363,-100,4,2,1,40,0,0
69707,-100,4,2,1,33,0,0
70052,-100,4,2,1,38,0,0
70397,-100,4,2,1,30,0,0
70742,-100,4,2,1,35,0,0
71087,-100,4,2,1,30,0,0
71690,-100,4,2,1,35,0,0
72121,-100,4,2,1,40,0,0
73242,-100,4,2,1,35,0,0
73501,-100,4,2,1,40,0,0
74535,-100,4,2,1,35,0,0
74880,-100,4,2,1,40,0,0
75483,-100,4,2,1,35,0,0
76001,-100,4,2,1,40,0,0
79363,-66.6666666666667,4,2,1,80,0,0
135742,-66.6666666666667,4,2,1,50,0,0
146776,-100,4,2,1,60,0,0
168156,-100,4,1,1,36,0,0
173845,-100,4,2,1,60,0,0
179363,-100,4,1,1,36,0,0
186432,-100,4,1,1,60,0,0
187294,-100,4,1,1,34,0,0
189190,-100,4,1,1,60,0,0
190052,-100,4,1,1,35,0,0
190828,-100,4,1,1,49,0,0
191345,-100,4,1,1,58,0,0
191863,-100,4,1,1,69,0,0
192466,-100,4,2,1,30,0,0
192983,-100,4,2,1,41,0,0
193156,-100,4,2,1,50,0,0
193328,-100,4,2,1,60,0,0
193501,-100,4,2,1,71,0,0
193673,-100,4,2,1,80,0,0
198156,-100,4,2,1,29,0,0
198501,-100,4,2,1,40,0,0
198673,-100,4,2,1,49,0,0
198845,-100,4,2,1,60,0,0
199018,-100,4,2,1,71,0,0
199190,-100,4,2,1,80,0,0
203673,-100,4,2,1,31,0,0
204018,-100,4,2,1,41,0,0
204190,-100,4,2,1,50,0,0
204363,-100,4,2,1,59,0,0
204535,-100,4,2,1,71,0,0
204707,-100,4,2,1,80,0,0
209018,-100,4,2,1,71,0,0
209363,-100,4,2,1,60,0,0
209707,-100,4,2,1,51,0,0
210052,-100,4,2,1,81,0,0
212811,-100,4,2,1,71,0,0
213156,-100,4,2,1,51,0,0
213501,-100,4,2,1,71,0,0
213845,-100,4,2,1,51,0,0
214190,-100,4,2,1,71,0,0
214707,-100,4,2,1,31,0,0
215052,-100,4,2,1,40,0,0
215225,-100,4,2,1,51,0,0
215397,-100,4,2,1,60,0,0
215569,-100,4,2,1,70,0,0
215742,-100,4,2,1,80,0,0
220225,-100,4,2,1,31,0,0
220569,-100,4,2,1,40,0,0
220742,-100,4,2,1,49,0,0
220914,-100,4,2,1,61,0,0
221087,-100,4,2,1,70,0,0
221259,-100,4,2,1,80,0,0
225742,-100,4,2,1,30,0,0
226087,-100,4,2,1,40,0,0
226259,-100,4,2,1,50,0,0
226432,-100,4,2,1,61,0,0
226604,-100,4,2,1,70,0,0
237121,-100,4,2,1,50,0,0
237638,-50,4,2,1,50,0,0
247294,-50,4,1,1,30,0,0
249018,-50,4,2,1,50,0,0
259794,-50,4,1,1,50,0,0
260052,-50,4,2,1,50,0,0
273500,-50,4,1,1,50,0,0
275397,-50,4,2,1,50,0,0
280138,-100,4,2,1,50,0,0
280569,-100,4,2,1,0,0,0
281431,-100,4,2,1,30,0,0
282630,690.846286701209,4,2,1,30,1,0
299380,689.655172413793,4,2,1,30,1,0
300914,-100,4,2,1,40,0,0
302294,-100,4,2,1,50,0,0
305569,-50,4,2,1,70,0,1
326603,-50,4,2,1,70,0,0
326775,-50,4,1,1,50,0,0
349620,-50,4,2,1,70,0,0
359247,-50,4,1,1,50,0,0
360741,-100,4,2,1,90,0,0
371086,-100,4,2,1,0,0,0

[Colours]
Combo1 : 255,255,255
Combo2 : 255,214,113
Combo3 : 255,0,0

[HitObjects]
72,88,570,1,2
104,64,742,1,0
176,96,1087,1,2
216,104,1259,1,0
280,56,1604,1,2
352,96,1949,1,0
400,160,2294,1,2
432,232,2638,1,2
304,144,3328,5,0
336,216,3673,1,2
328,296,4018,1,0
280,352,4363,1,2
272,272,4707,1,0
208,312,5052,1,2
128,328,5397,1,2
440,295,6087,5,2
408,320,6259,1,0
336,288,6604,1,2
296,279,6776,1,0
232,327,7121,1,2
160,287,7466,1,0
112,224,7811,1,2
80,152,8156,1,2
208,240,8845,5,0
176,168,9190,1,2
184,88,9535,1,0
232,32,9880,1,2
312,16,10225,1,0
384,40,10569,1,2
320,80,10914,5,0
280,88,11087,1,0
248,112,11259,1,0
256,232,11604,5,2
232,200,11776,1,0
176,264,12121,1,2
136,248,12294,1,0
48,168,12638,1,2
160,120,12983,1,0
248,40,13328,1,2
368,8,13673,2,0,B|448:8,2,60,2|0|0
480,48,14707,5,2
360,72,15052,1,0
256,136,15397,1,2
208,248,15742,1,0
120,328,16087,1,2
0,360,16432,2,0,B|0:280,2,60,2|0|4
104,296,17466,5,0
144,296,17638,1,0
184,280,17811,1,2
232,168,18156,1,0
320,80,18501,2,0,B|360:8,2,60,0|2|2
440,72,19535,1,0
432,192,19880,5,0
256,360,20225,1,2
88,192,20569,1,0
256,24,20914,1,2
424,192,21259,1,0
304,192,21604,5,0
184,192,21949,1,0
144,144,22121,1,0
128,200,22294,1,0
72,208,22466,1,0
112,256,22638,5,2
112,256,22811,1,0
184,352,23156,1,2
184,352,23328,1,0
304,352,23673,1,2
376,256,24018,2,0,B|464:256,2,60,0|2|2
448,160,25052,1,0
432,40,25397,5,0
448,160,25742,1,2
376,256,26087,1,0
272,312,26432,1,2
152,296,26776,1,0
48,240,27121,1,2
16,120,27466,2,0,B|16:40,2,60,2|0|0
104,208,28501,5,2
136,184,28673,1,0
176,176,28845,1,0
280,232,29190,1,2
400,232,29535,1,0
360,120,29880,1,2
256,64,30225,1,2
136,80,30570,1,0
88,192,30914,5,0
256,360,31259,1,2
424,192,31604,1,0
256,24,31949,1,2
88,192,32294,1,0
256,192,32466,12,0,33673
41,325,34018,5,0
108,299,34363,1,2
162,252,34707,1,0
207,196,35052,1,0
264,152,35397,1,2
264,152,35570,1,0
264,152,35742,1,0
333,133,36087,1,0
404,130,36432,6,0,B|440:135|451:168,1,60,0|2
366,67,37121,2,0,B|348:39|310:39,1,60,0|2
281,50,37638,2,0,B|254:68|219:67,1,60,0|0
188,76,38156,1,0
158,97,38328,1,0
134,124,38501,1,2
42,262,38845,5,0
115,210,39190,2,0,B|138:185|167:183,1,60,2|0
191,251,39880,2,0,B|222:235|255:242,1,60
263,273,40397,2,0,B|308:259|348:292,1,90,2|0
468,222,41259,2,0,B|440:204|409:207,1,60,0|2
304,132,41949,2,0,B|353:96|422:106,1,120
311,49,42983,6,0,B|341:16,2,30,2|0|0
197,90,43673,1,0
250,197,44018,1,2
81,184,44363,1,0
128,324,44707,1,0
462,299,45397,6,0,B|396:301|350:346,1,120,0|2
245,290,46432,1,2
213,273,46604,1,0
177,266,46776,1,0
57,251,47121,5,0
158,187,47466,2,0,B|184:171|219:175,1,60,2|0
186,57,48156,2,0,B|216:45|246:58,1,60,2|0
273,78,48673,2,0,B|298:94|333:88,1,60
366,89,49190,1,0
399,75,49363,1,0
426,51,49535,5,2
384,192,49880,1,0
224,160,50225,2,0,B|162:141|105:172,1,120,2|0
18,250,51259,1,0
18,250,51432,2,0,B|50:254|70:279,1,60,2|0
105,279,51949,5,2
204,211,52294,1,2
163,323,52638,1,0
152,159,52983,2,0,B|189:115|260:106,1,120,2|0
299,219,54018,1,2
334,220,54190,1,0
369,211,54363,5,0
466,141,54707,1,0
349,111,55052,1,0
247,174,55397,1,0
239,54,55742,6,0,B|190:18|115:19,1,120,4|2
13,156,56776,1,0
119,100,57121,2,0,B|153:99|179:117,1,60
209,129,57638,1,0
237,150,57811,1,2
345,32,58156,5,0
448,149,58501,2,0,B|475:169|474:202,1,60,0|2
304,332,59190,2,0,B|276:356|241:349,1,60,0|2
49,240,59880,2,0,B|27:215|29:182,1,60,2|2
30,148,60397,1,2
38,113,60570,1,0
192,32,60914,5,2
384,96,61259,1,2
384,288,61604,1,0
192,352,61949,1,2
32,192,62294,5,0
32,192,62466,2,0,B|96:192,1,60,2|0
118,216,62983,2,0,B|136:242|172:253,1,60,2|0
230,149,63673,1,2
239,331,64018,2,0,B|304:342|361:307,1,120,0|2
463,178,65052,5,0
463,178,65225,1,2
463,178,65397,2,0,B|434:164|401:174,1,60,0|2
377,197,65914,2,0,B|346:207|318:194,1,60,2|0
287,176,66432,1,2
35,223,66776,6,0,B|58:199|93:198,1,60,4|2
208,184,67466,1,0
271,326,67811,1,2
306,332,67983,1,0
342,330,68156,2,0,B|374:331|407:318,1,60
435,309,68673,1,2
434,90,69190,5,0
363,102,69535,1,2
298,134,69880,1,0
256,192,70225,1,2
212,249,70570,1,0
153,290,70914,1,2
88,322,71259,1,2
88,322,71432,1,2
267,339,71949,5,0
267,339,72294,2,0,B|331:319,1,60,2|0
342,289,72811,2,0,B|356:263|396:251,1,60,0|0
416,230,73328,1,2
477,169,73673,2,0,B|426:138|357:144,1,120
279,247,74707,5,0
278,247,75052,2,0,B|224:276,1,60,2|0
189,277,75570,2,0,B|166:254|133:256,1,60,0|0
98,250,76087,1,2
40,177,76432,2,0,B|92:149|158:157,1,120
191,163,77294,1,2
226,170,77466,1,0
259,183,77638,1,0
292,196,77811,5,4
261,79,78501,1,2
143,54,79190,5,2
44,120,79707,6,0,B|44:64,2,44.9999986588955
44,180,80225,1,0
44,180,80397,1,0
44,180,80570,2,0,B|232:180,2,179.999994635582,4|2|0
44,296,82294,6,0,B|44:352,2,44.9999986588955,0|0|2
92,264,82811,2,0,B|188:264,1,89.9999973177911
212,316,83328,2,0,B|268:316|268:248,1,89.9999973177911
308,216,83845,2,0,B|360:216,2,44.9999986588955,0|2|0
256,112,84535,1,0
256,112,84707,2,0,B|392:112,1,134.999995976687
424,64,85397,6,0,B|424:16,2,44.9999986588955,2|0|0
456,112,85914,1,0
456,112,86087,2,0,B|456:300,2,179.999994635582,4|2|0
336,112,87811,5,0
308,60,87983,1,0
248,60,88156,1,2
216,112,88328,1,0
276,112,88501,1,0
252,164,88673,1,0
192,164,88845,2,0,B|96:164,1,89.9999973177911
68,116,89363,1,0
32,164,89535,2,0,B|32:256,2,89.9999973177911,2|0|0
52,44,90570,5,0
52,44,90742,1,0
96,84,90914,1,2
96,84,91087,1,0
140,44,91259,1,0
140,44,91432,1,0
184,84,91604,2,0,B|299:86|299:228,2,179.999994635582,4|2|0
100,168,93328,5,0
100,168,93501,1,0
136,212,93673,1,2
136,212,93845,2,0,B|188:216|188:280,1,89.9999973177911
132,296,94363,2,0,B|132:356|196:360,1,89.9999973177911
236,332,94880,1,0
236,332,95052,1,2
236,332,95225,2,0,B|328:332,1,89.9999973177911
368,292,95742,2,0,B|420:296|420:356,2,89.9999973177911,0|0|2
292,204,96776,6,0,B|236:204,2,44.9999986588955,0|0|4
412,180,97466,2,0,B|472:180,2,44.9999986588955,0|0|2
344,80,98156,1,0
344,80,98501,1,0
232,40,98845,6,0,B|192:92,1,44.9999986588955
244,120,99190,2,0,B|184:144,1,44.9999986588955,2|0
224,192,99535,2,0,B|164:192,2,44.9999986588955
256,304,100225,1,0
256,304,100397,1,0
256,304,100570,2,0,B|352:304,2,89.9999973177911,2|2|2
148,352,101604,6,0,B|100:308,1,44.9999986588955
152,276,101949,2,0,B|84:248,1,44.9999986588955,2|0
136,208,102294,2,0,B|68:208,1,44.9999986588955
40,180,102638,2,0,B|38:69|154:66,2,179.999994635582,4|2|0
152,144,104363,5,0
188,192,104535,1,0
152,144,104707,1,2
188,192,104880,2,0,B|284:192,1,89.9999973177911
316,148,105397,1,0
316,148,105742,1,0
280,100,105914,2,0,B|220:100,2,44.9999986588955,0|2|0
396,100,106604,1,0
396,100,106776,2,0,B|468:124|468:204,1,134.999995976687
468,260,107466,5,2
436,312,107638,1,0
376,312,107811,1,0
348,260,107983,1,0
348,260,108156,2,0,B|156:260,2,179.999994635582,4|2|0
288,160,109880,6,0,B|288:108,2,44.9999986588955,0|0|2
236,192,110397,2,0,B|172:192,2,44.9999986588955
236,132,110914,2,0,B|236:76|172:64,1,89.9999973177911
152,20,111432,1,0
116,68,111604,1,2
36,152,111949,1,0
112,240,112294,1,0
232,332,112638,5,0
272,288,112811,1,0
312,332,112983,1,2
356,288,113156,1,0
396,332,113328,1,0
436,288,113501,1,0
476,332,113673,2,0,B|476:152,2,179.999994635582,4|2|0
376,192,115397,6,0,B|376:120,2,44.9999986588955,0|0|2
352,244,115914,2,0,B|260:244,1,89.9999973177911
284,188,116432,2,0,B|176:188,1,89.9999973177911
168,136,116949,2,0,B|168:68,2,44.9999986588955,0|2|0
60,88,117638,1,0
60,88,117811,1,0
60,88,118156,5,0
60,148,118328,2,0,B|0:148,2,44.9999986588955,0|2|0
88,200,118845,2,0,B|136:200,2,44.9999986588955,0|0|4
112,316,119535,2,0,B|12:316,2,89.9999973177911,0|2|0
112,316,120397,1,0
112,316,120570,1,0
228,316,120914,5,0
228,316,121087,1,0
228,256,121259,1,2
228,256,121432,2,0,B|228:200|284:196,1,89.9999973177911
320,152,121949,2,0,B|376:164|376:228,1,89.9999973177911
376,272,122466,1,0
328,304,122638,1,2
328,304,122983,1,2
328,304,123328,1,2
256,192,123501,12,4,124707
96,48,125397,6,0,B|64:96|104:168,1,89.9999973177911
200,104,126087,1,0
304,168,126432,1,0
400,232,126776,2,0,B|424:184|400:128,1,89.9999973177911
328,56,127466,5,0
304,168,127811,1,0
200,104,128156,1,0
184,216,128501,1,0
280,280,128845,1,0
304,168,129190,1,0
184,216,129535,1,0
280,280,129880,1,0
392,248,130225,5,0
312,336,130570,1,0
176,344,130914,2,0,B|128:320|112:256,1,89.9999973177911
72,168,131604,2,0,B|56:112|88:72,1,89.9999973177911
184,24,132294,1,0
240,8,132466,1,0
296,24,132638,1,0
392,96,132983,6,0,B|464:48,2,44.9999986588955
408,216,133673,2,0,B|456:192,2,44.9999986588955
416,336,134363,2,0,B|456:312,2,44.9999986588955
373,361,134880,1,0
324,369,135052,1,0
275,360,135225,1,0
228,342,135397,1,0
186,315,135570,1,0
150,281,135742,1,4
24,64,147121,6,0,B|88:120,1,60,0|2
120,144,147811,1,0
248,88,148156,2,0,B|216:168,1,60
200,200,148845,1,2
80,272,149190,6,0,B|160:304,1,60
192,312,149880,1,0
248,328,150225,2,0,B|304:264,1,60,2|0
328,232,150914,1,0
392,240,151259,1,2
392,240,151604,1,2
456,96,151949,6,0,B|496:136,2,30
456,96,152638,1,0
408,56,152983,1,8
344,56,153328,1,0
296,96,153673,2,0,B|248:48,1,60
256,136,154363,2,0,B|312:192,1,60,8|0
208,176,155052,2,0,B|106:78,2,120,0|8|0
232,232,156776,1,8
296,232,157121,1,8
320,176,157466,1,0
264,176,157811,1,4
276,32,158501,6,0,B|216:32,1,60,8|0
152,32,159190,1,0
224,120,159535,2,0,B|144:152,1,60,0|8
112,160,160225,1,0
256,208,160570,6,0,B|344:208,1,60
376,208,161259,1,8
320,288,161604,2,0,B|400:320,1,60
432,336,162294,1,8
432,336,162638,1,8
432,144,162983,5,0
432,144,163156,1,0
432,144,163328,2,0,B|432:80,1,60
432,24,164018,2,0,B|352:16,1,60,8|0
376,80,164707,2,0,B|296:80,1,60
320,144,165397,2,0,B|232:152,1,60,8|0
280,208,166087,2,0,B|32:280,1,240,0|2
256,96,168501,5,0
96,160,168845,2,0,B|144:160|176:192,1,60
352,208,169535,2,0,B|384:224|432:224,1,60
160,336,170225,1,0
256,352,170570,1,8
352,336,170914,1,8
256,288,171259,5,0
112,192,171604,2,0,B|112:240|96:272,1,60
256,176,172294,2,0,B|256:224|240:256,1,60
400,160,172983,2,0,B|400:208|384:240,2,60,0|8|8
384,40,174018,5,2
376,104,174363,1,8
368,136,174535,1,0
356,164,174707,1,2
256,64,175052,5,10
248,128,175397,1,0
240,160,175570,1,0
228,188,175742,1,8
120,88,176087,5,2
112,152,176432,1,8
104,184,176604,1,0
92,212,176776,1,2
75,237,176949,1,0
56,256,177121,1,10
168,240,177466,5,2
216,272,177811,1,8
241,287,177983,1,0
268,299,178156,1,2
328,320,178501,1,8
357,327,178673,1,0
386,332,178845,1,2
416,332,179018,1,8
446,332,179190,1,10
328,216,179535,6,0,B|368:240|408:232,1,60
352,136,180225,2,0,B|312:112|272:120,1,60
176,168,180914,2,0,B|216:192|256:184,1,60
192,80,181604,2,0,B|152:56|112:64,1,60,8|8
32,64,182294,6,0,B|24:104|48:136,1,60,0|0
121,175,182983,2,0,B|128:152|104:120,1,60
47,192,183673,2,0,B|40:232|55:250,1,60
145,303,184363,2,0,B|152:280|128:248,1,60,8|8
99,106,185052,6,0,B|131:82|179:74,1,60,0|4
208,64,185742,2,0,B|282:50|346:74|410:74,1,180,0|0
387,74,186949,1,0
387,74,187121,2,0,B|442:82|466:66,1,60,0|8
416,168,187811,6,0,B|384:192|336:200,1,60,0|4
307,210,188501,2,0,B|232:223|168:199|104:199,1,180
128,200,189707,1,0
128,200,189880,2,0,B|80:192|48:208,2,75
144,224,190914,2,0,B|176:240|216:240,1,60,4|0
224,224,191432,2,0,B|264:216|296:240,1,60,4|0
304,256,191949,2,0,B|336:272|384:264,1,60,0|4
408,144,192811,5,2
376,120,192983,1,2
344,104,193156,1,2
304,96,193328,1,2
264,104,193501,1,2
232,120,193673,2,0,B|176:152|120:96,2,120,2|2|2
296,160,195397,1,0
232,208,195742,1,0
232,208,195914,1,0
296,256,196259,1,0
296,256,196432,1,2
232,304,196776,1,0
192,312,196949,1,0
152,320,197121,2,0,B|88:336|32:288,1,120,2|2
160,160,198328,5,2
184,192,198501,1,2
216,216,198673,1,2
256,224,198845,1,2
296,208,199018,1,2
328,184,199190,2,0,B|392:136|448:192,2,120,2|2|2
280,120,200914,1,0
248,96,201087,1,0
232,56,201259,1,0
176,112,201604,1,0
120,56,201949,1,2
64,112,202294,1,0
64,112,202466,1,0
64,112,202638,2,0,B|40:168|64:240,1,120,2|2
256,328,203845,5,2
216,312,204018,1,2
184,288,204190,1,2
160,256,204363,1,2
144,216,204535,1,2
136,176,204707,2,0,B|136:112|200:72,2,120,2|2|2
216,176,206432,1,0
288,200,206776,1,0
288,200,206949,1,0
352,240,207294,1,0
352,240,207466,1,2
392,304,207811,1,0
392,304,207983,1,0
392,304,208156,2,0,B|456:288|480:208,1,120,2|2
392,168,209190,5,2
480,128,209535,1,2
392,88,209880,1,2
312,136,210225,5,2
240,160,210570,1,0
240,160,210742,1,0
240,160,210914,1,2
160,144,211259,1,0
80,160,211604,2,0,B|56:216|80:280,1,120,2|0
78,277,212466,1,0
78,277,212638,1,0
184,240,212983,5,2
208,144,213328,1,2
256,56,213673,1,2
304,144,214018,1,2
328,240,214363,1,2
56,304,214880,5,2
96,280,215052,1,2
128,248,215225,1,2
152,208,215397,1,2
160,168,215570,1,2
152,120,215742,2,0,B|136:56|64:40,2,120,2|2|2
232,160,217466,1,0
312,128,217811,1,0
320,120,217983,1,0
400,160,218328,1,0
392,168,218501,1,2
480,128,218845,1,0
480,136,219018,1,0
480,144,219190,2,0,B|480:272,1,120,2|2
344,280,220397,5,2
304,264,220570,1,2
256,264,220742,1,2
216,288,220914,1,2
176,304,221087,1,2
128,304,221259,2,0,B|64:312|24:240,2,120,2|2|2
176,232,222983,1,0
176,232,223156,1,0
176,232,223328,1,0
216,152,223673,1,0
288,96,224018,1,2
376,80,224363,1,0
376,80,224535,1,0
376,80,224707,2,0,B|504:80,1,120,2|2
272,88,225914,5,2
245,121,226087,1,2
203,145,226259,1,2
157,145,226432,1,2
114,151,226604,1,2
72,175,226776,2,0,B|12:200|13:282,2,120,2|2|2
120,232,228501,1,0
176,288,228845,1,0
176,288,229018,1,0
232,232,229363,1,0
232,232,229535,1,2
288,288,229880,1,0
288,288,230052,1,0
288,288,230225,2,0,B|360:288,3,60,2|0|2|2
392,208,231604,5,2
352,192,231776,1,2
312,168,231949,1,2
280,136,232121,1,2
256,96,232294,2,0,B|216:48|144:64,2,120,2|2|2
200,160,234018,1,0
160,184,234190,1,0
232,240,234535,1,0
264,272,234707,1,0
256,192,235052,12,0,236776
48,96,237121,5,0
48,96,237294,1,0
48,96,237466,1,0
48,96,237638,1,0
48,96,237811,6,0,B|120:72|192:136,1,120,4|2
208,160,238328,1,0
160,200,238501,2,0,B|112:248|128:312,1,120,0|2
264,280,239190,2,0,B|328:264|392:328,2,120,0|2|2
208,168,240225,2,0,B|139:162,1,60
88,160,240570,2,0,B|56:96|104:32,1,120,2|2
216,72,241259,1,0
344,104,241604,1,2
456,136,241949,2,0,B|456:216|392:248,1,120,0|2
352,280,242466,1,0
296,320,242638,1,2
232,320,242811,1,0
168,312,242983,1,2
88,160,243328,5,6
248,104,243673,1,2
296,144,243845,1,2
328,200,244018,2,0,B|352:264|288:320,1,120,0|2
200,216,244707,2,0,B|128:192|72:240,2,120,0|2|2
344,144,245742,1,0
344,144,245914,1,0
344,144,246087,2,0,B|352:208|320:264,1,120,2|0
224,144,246776,2,0,B|168:112|72:144,1,120,2|2
152,368,247466,5,0
120,312,247638,1,0
128,248,247811,2,0,B|88:224,3,30
160,224,248156,6,0,B|168:176,1,40,0|4
208,184,248386,2,0,B|232:128,1,40,0|4
264,160,248615,2,0,B|328:136,1,40,0|4
344,160,248845,6,0,B|392:240|344:304,1,120,4|2
328,328,249363,1,2
280,288,249535,2,0,B|216:248|136:288,1,120,0|2
32,200,250225,2,0,B|72:144|144:152,2,120,0|2|2
168,232,251259,1,0
272,120,251604,6,0,B|296:184|248:248,1,120,0|2
208,272,252121,1,0
152,296,252294,1,2
280,336,252638,2,0,B|344:296|416:344,1,120,0|2
448,360,253156,1,0
472,304,253328,1,2
480,240,253501,1,0
456,184,253673,1,2
328,72,254018,1,0
328,72,254190,1,0
328,72,254363,6,0,B|264:32|176:56,1,120,4|0
152,64,254880,1,2
96,96,255052,1,0
56,144,255225,1,2
40,208,255397,1,2
176,224,255742,1,2
224,336,256087,1,2
224,336,256259,1,0
224,336,256432,2,0,B|296:352|352:296,1,120,2|0
272,152,257121,6,0,B|352:152|392:200,1,120,0|2
416,248,257638,1,2
400,312,257811,1,0
352,352,257983,1,2
288,368,258156,1,2
136,304,258501,1,2
112,248,258673,1,0
144,192,258845,1,2
104,144,259018,1,2
75,80,259190,2,0,B|131:32,1,60,2|0
120,40,259535,2,0,B|171:80,1,60,2|0
168,77,259880,6,0,B|291:112|419:0,1,240,4|10
312,160,260914,1,2
168,176,261259,2,0,B|232:312|400:280,1,240,0|10
424,272,262121,1,0
472,232,262294,1,2
480,168,262466,1,0
432,120,262638,6,0,B|448:56,1,60
384,56,262983,2,0,B|338:3,1,60,2|2
288,40,263328,1,10
248,88,263501,1,0
184,72,263673,1,2
136,112,263845,1,0
120,176,264018,2,0,B|48:208|-16:160,1,120,2|0
40,296,264707,1,8
88,336,264880,1,2
144,360,265052,1,0
208,352,265225,1,2
272,328,265397,6,0,B|344:336|424:296,1,120,0|2
384,248,265914,1,2
440,272,266087,2,0,B|504:232|496:152,1,120,8|0
432,72,266776,1,2
280,80,267121,1,2
248,136,267294,1,0
112,144,267638,1,2
104,208,267811,1,0
24,352,268156,2,0,B|120:296|216:368,1,180
248,320,268845,2,0,B|312:352,3,40,8|0|0|0
320,224,269535,2,0,B|392:200|464:264,1,120
488,272,270052,1,2
512,216,270225,1,8
504,152,270397,1,2
472,96,270570,1,0
416,64,270742,1,2
352,48,270914,6,0,B|272:24|224:80,1,120,0|2
184,96,271432,1,2
80,264,271776,1,2
144,272,271949,2,0,B|208:288|240:352,1,120,2|0
296,352,272466,1,2
352,328,272638,1,0
416,328,272811,1,2
472,304,272983,1,8
464,168,273328,1,2
368,48,273673,6,0,B|384:144,1,80,4|0
288,112,274133,2,0,B|304:216,1,80,4|0
208,184,274592,2,0,B|224:280,1,80,4|0
336,264,275052,6,0,B|280:376|128:360,1,240,4|0
72,344,275914,1,2
24,304,276087,1,0
0,248,276259,1,2
16,184,276432,2,0,B|96:176|136:104,1,120,2|0
152,72,276949,1,2
280,32,277294,1,2
344,56,277466,1,0
312,112,277638,1,2
272,168,277811,2,0,B|248:256,1,60,2|0
320,216,278156,2,0,B|320:280,1,60,2|0
384,248,278501,2,0,B|408:320,1,60,2|0
456,264,278845,2,0,B|488:336,1,60,2|0
432,360,279190,6,0,B|392:408|304:376,1,120,2|0
280,336,279707,2,0,B|232:288|136:312,1,120,2|0
112,328,280225,2,0,B|32:320|8:256,1,120
128,96,282630,5,2
128,96,282802,1,2
104,168,283148,1,2
104,168,283320,1,2
104,168,283493,2,0,B|184:168|216:224,1,120
264,160,284529,1,0
280,240,284875,2,0,B|320:288|408:304,1,120,0|2
424,296,285738,1,0
440,224,286084,5,2
432,184,286256,2,0,B|424:112|352:104,1,120
280,96,287293,1,0
280,96,287465,1,0
280,96,287638,2,0,B|240:80|200:96,2,60,2|2|2
304,168,288674,5,0
304,168,288847,1,0
304,168,289020,2,0,B|240:184|200:240,1,120,2|2
440,328,290402,1,2
400,256,290747,1,0
400,256,290920,1,2
400,256,291092,2,0,B|344:216|264:224,1,120
208,208,292129,5,2
208,208,292301,1,2
208,208,292474,2,0,B|248:152|328:160,1,120,0|2
392,152,293510,1,0
344,88,293856,1,0
272,64,294201,5,0
272,64,294374,1,0
272,64,294547,2,0,B|352:72|392:136,1,120,2|0
288,312,295928,1,2
216,280,296274,1,0
280,232,296619,1,0
280,232,296792,2,0,B|256:192|192:200,1,90,0|2
120,192,297655,1,0
120,192,297828,5,2
184,104,298174,1,2
248,192,298519,2,0,B|312:128|400:144,1,150,2|0
432,200,299724,5,0
432,200,299897,1,0
432,200,300069,2,0,B|416:264|328:280,1,120,4|0
304,216,301104,1,0
304,216,301276,1,0
304,216,301448,2,0,B|240:256|176:240,1,120,4|0
152,176,302483,1,0
152,176,302655,1,0
152,176,302828,2,0,B|64:160|48:96,1,120,4|0
56,40,303862,1,4
136,56,304207,2,0,B|192:104|256:88,1,120,4|0
320,72,305242,5,2
320,72,305414,1,2
320,72,305586,2,0,B|352:152|424:160,1,120,4|0
466,155,306104,1,0
466,155,306276,2,0,B|466:80,2,60,8|0|2
466,221,306793,1,2
466,287,306966,2,0,B|400:312|312:304,2,120,0|0|8
344,112,308000,5,2
280,104,308173,1,0
216,112,308345,1,4
112,192,308690,1,0
176,216,308862,1,2
240,200,309035,1,8
344,280,309379,1,0
280,288,309552,1,0
224,256,309724,1,4
216,192,309897,1,0
256,136,310069,1,0
320,136,310242,1,0
368,184,310414,2,0,B|448:168|480:120,2,120,8|0|4
304,192,311276,5,0
240,184,311448,2,0,B|208:112|144:96,1,120,0|8
96,88,311966,1,0
104,152,312138,2,0,B|176:160|232:112,1,120,0|4
248,64,312655,1,0
184,72,312828,2,0,B|160:144|168:216,1,120,0|8
176,256,313345,5,0
208,312,313517,1,0
272,336,313690,1,0
336,336,313862,2,0,B|360:272|440:256,1,120,4|0
424,328,314379,2,0,B|360:304|344:208,1,120,4|0
408,200,314897,2,0,B|344:136|272:144,2,120
360,40,315931,5,2
296,32,316104,1,0
232,48,316276,1,2
176,216,316621,2,0,B|160:144|80:136,1,120,4|0
29,138,317138,1,0
29,138,317311,2,0,B|29:61,2,60,8|0|0
29,204,317828,1,0
29,270,318000,2,0,B|176:270,1,120
404,271,318690,5,2
424,208,318862,1,0
400,144,319035,1,0
304,48,319379,1,4
288,112,319552,1,0
304,176,319724,1,0
216,272,320069,1,8
192,208,320242,2,0,B|120:208,2,60
216,144,320759,2,0,B|264:88|336:104,2,120,0|0|8
152,144,321621,6,0,B|80:144,2,60
152,208,322138,2,0,B|280:208,1,120,4|0
336,208,322655,1,0
336,272,322828,2,0,B|336:136,1,120,8|0
336,88,323345,1,0
400,88,323517,2,0,B|256:88,1,120,4|0
216,88,324035,1,0
152,88,324207,6,0,B|80:88,2,60,8|0|0
184,144,324724,1,0
152,200,324897,2,0,B|80:200,2,60
184,256,325414,1,0
216,200,325586,2,0,B|336:200,1,120,4|2
336,264,326104,1,0
392,232,326276,1,0
392,168,326448,1,0
336,136,326621,1,0
256,32,326966,5,0
256,32,327054,1,0
256,32,327143,1,0
219,95,327311,1,0
291,95,327483,1,0
256,152,327655,2,0,B|256:272,2,120,4|0|8
16,136,328690,5,0
88,152,328862,1,0
160,128,329035,2,0,B|224:104|288:120,2,120,0|0|8
152,336,330069,5,0
144,264,330242,1,0
168,192,330414,2,0,B|120:136|48:144,2,120,0|0|8
240,208,331276,1,0
296,168,331448,2,0,B|376:136,2,60,0|0|8
232,136,331966,2,0,B|160:96,2,60
296,96,332483,2,0,B|368:64|432:88,1,120,4|0
416,280,333173,6,0,B|400:208|320:200,1,120,4|0
264,224,333690,1,0
200,184,333862,2,0,B|168:176|128:184|120:168,2,60,8|0|0
384,56,334552,5,0
312,40,334724,1,0
248,72,334897,1,0
72,152,335242,6,0,B|120:208|184:200,1,120,8|0
240,168,335759,1,0
296,208,335931,2,0,B|320:200|336:240|368:240,2,60
232,248,336448,1,0
240,168,336621,2,0,B|232:96|152:88,1,120,8|0
40,256,337311,5,4
96,304,337483,1,0
112,312,337571,1,0
128,312,337661,1,0
192,280,337828,1,0
264,272,338000,2,0,B|336:256,1,60,8|0
320,184,338345,2,0,B|384:144,1,60,8|0
352,80,338690,6,0,B|416:48|480:64,2,120,4|0|8
256,184,339724,1,0
160,80,340069,2,0,B|96:48|32:64,2,120,4|0|8
256,184,341104,1,0
416,336,341448,6,0,B|368:280,1,60
304,304,341793,2,0,B|240:256,1,60
184,280,342138,2,0,B|96:272,1,60,8|0
64,232,342483,2,0,B|0:240,2,60,0|0|4
192,56,343173,1,4
392,144,343517,1,4
272,320,343862,5,0
256,248,344035,1,0
192,208,344207,2,0,B|152:152|72:144,2,120,4|0|8
432,80,345242,5,0
360,64,345414,1,0
304,112,345586,2,0,B|240:136|160:120,2,120,0|0|8
368,320,346621,5,0
328,264,346793,1,0
328,192,346966,2,0,B|368:144|448:136,1,120
488,184,347483,1,0
424,208,347655,2,0,B|384:136|320:120,1,120,8|0
272,112,348173,1,0
200,112,348345,6,0,B|120:128,1,60
184,184,348690,2,0,B|120:224,1,60
192,256,349035,2,0,B|168:320,1,60,8|0
240,312,349379,1,0
240,312,349552,1,0
240,312,349724,6,0,B|288:272|376:280,1,120,2|2
424,288,350242,1,0
488,248,350414,1,2
360,72,350759,1,2
144,96,351104,1,0
360,136,351448,1,2
144,160,351793,1,2
352,336,352483,6,0,B|336:264|248:272,1,120,2|0
192,256,353000,1,0
128,288,353173,2,0,B|88:304|48:296,2,60,2|0|0
88,112,353862,1,2
256,40,354207,1,2
424,112,354552,1,2
136,112,355242,6,0,B|176:168|256:176,1,120,0|2
272,112,355759,2,0,B|216:176|224:240,1,120
232,288,356276,1,2
376,256,356621,2,0,B|360:176|304:144,1,120,0|2
192,216,357311,2,0,B|160:152|88:144,1,120,2|0
256,344,358000,5,2
488,192,358345,1,2
256,40,358690,1,2
24,192,359035,1,2
256,344,359379,5,4
337,294,359609,1,0
363,284,359724,1,0
386,268,359839,1,0
411,175,360069,1,8
386,161,360181,1,0
359,152,360296,1,0
331,149,360414,1,0
303,151,360526,1,0
276,158,360641,1,0
249,167,360759,1,2
105,96,361104,5,2
118,129,361276,1,2
132,161,361448,1,0
164,232,361793,1,2
196,303,362138,2,0,B|256:283|319:286,1,120,2|2
392,278,363173,1,0
445,106,363517,6,0,B|392:99|320:108,1,120,2|0
250,126,364552,1,2
173,138,364897,2,0,B|137:142|102:140,2,60,0|2|2
250,153,365931,1,0
412,256,366276,6,0,B|348:248|279:253,1,120,2|0
215,264,367311,1,2
145,230,367655,2,0,B|109:224|74:224,2,60,0|2|2
222,217,368690,1,0
387,100,369035,6,0,B|320:93,1,60,2|0
211,125,369724,2,0,B|276:135,1,60
386,169,370414,2,0,B|324:184,1,60,2|0
256,192,371104,12,0,371793
