osu file format v6

[General]
AudioFilename: niconicochorus.mp3
AudioLeadIn: 0
PreviewTime: 68450
Countdown: 1
SampleSet: Normal
StackLeniency: 0.8
Mode: 0
LetterboxInBreaks: 1
SkinPreference:Default

[Editor]
DistanceSpacing: 1.39999997615814
BeatDivisor: 4
GridSize: 8

[Metadata]
Title:Meltdown
Artist:NicoNico Chorus/ Kagamine Rin
Creator:SeymourLyon
Version:Meltdown
Source:iroha (sasaki)
Tags:Roshin Yuukai Melt down Nico Vocaloid Itsuu Itsuu-P Derekku Chan Zatoichi

[Difficulty]
HPDrainRate:7
CircleSize:4
OverallDifficulty:8
SliderMultiplier:2.6
SliderTickRate:2

[Events]
//Background and Video events
0,0,"meltdown.jpg"
//Break Periods
2,9014,18973
2,92286,101882
2,164286,186246
//Storyboard Layer 0 (Background)
//Storyboard Layer 1 (Fail)
//Storyboard Layer 2 (Pass)
//Storyboard Layer 3 (Foreground)
//Storyboard Sound Samples
//Background Colour Transformations
3,100,0,0,0

[TimingPoints]
7359.6626506024,363.636363636364,4,1,0,70,1,0
65919,-200,4,1,0,70,0,0
68100,-100,4,1,0,70,0,0
186632,-200,4,2,0,84,0,0

[Colours]
Combo1 : 255,247,183
Combo2 : 225,255,255
Combo3 : 255,187,250
Combo4 : 254,186,186

[HitObjects]
56,192,7359,1,0
56,96,7541,2,0,B|120:40|200:120,1,130
176,192,7905,1,0
176,192,8086,1,0
232,264,8268,2,0,B|160:264,2,65
320,264,8632,1,0
376,192,8814,1,4
400,104,19723,6,0,B|440:168|400:240,1,130
336,296,20086,1,0
256,336,20268,2,0,B|192:376|120:336,1,130,0|2
132,342,20632,1,2
128,112,20996,5,0
128,112,21177,1,0
216,112,21359,2,0,B|216:32|128:32,2,130
304,112,21905,1,0
392,112,22086,2,0,B|392:192|304:192,1,130
312,280,22450,2,0,B|400:280|400:360,2,130
216,280,22996,2,0,B|152:320|80:272,1,130
88,184,23359,1,2
88,184,23541,1,2
384,184,23905,5,0
384,184,24086,2,0,B|384:104|288:104,1,130
208,104,24450,2,0,B|120:104|120:192,1,130
120,272,24814,1,0
192,328,24996,1,0
192,328,25086,1,0
192,328,25177,1,0
272,280,25359,1,0
352,328,25541,2,0,B|352:240|352:240|432:240|432:128|344:128,1,260
88,128,26268,5,2
88,128,26450,1,2
88,216,26632,2,0,B|176:216|176:120,2,130
88,304,27177,2,0,B|224:304,1,130
312,304,27541,2,0,B|448:304,1,130
440,208,27905,1,0
440,120,28086,1,0
360,168,28268,1,0
360,72,28450,1,0
280,120,28632,2,0,B|144:120,2,130
280,24,29177,1,2
280,24,29359,1,2
280,288,29723,5,0
280,288,29905,2,0,B|208:288|208:288|208:224,1,130
208,136,30268,2,0,B|208:72|208:72|152:24,1,130
64,32,30632,1,0
64,120,30814,2,0,B|136:120,2,65
64,208,31177,1,2
64,208,31359,1,6
488,208,31905,5,0
488,208,32086,1,4
64,208,32632,5,0
64,208,32814,1,4
256,32,33359,5,0
256,32,33450,1,0
256,32,33541,1,0
200,104,33723,2,0,B|264:144|336:96,1,130
408,128,34086,1,0
480,184,34268,2,0,B|488:272|392:296,1,130
328,288,34632,2,0,B|192:288,1,130
198,288,34996,1,4
64,48,35541,5,0
64,48,35723,2,0,B|136:104|136:104|136:24|136:24|224:96,1,260,4|0
204,80,36268,1,0
208,344,36632,1,0
296,344,36814,1,0
384,344,36996,1,4
200,192,37359,5,0
288,192,37541,1,0
336,192,37632,1,0
384,192,37723,1,2
472,192,37905,1,4
24,192,38450,5,2
24,192,38632,1,4
480,48,39177,6,0,B|376:48|376:48|344:80,1,130,0|0
288,128,39541,1,0
224,192,39723,2,0,B|192:224|192:224|88:224,1,130
16,224,40086,1,0
107,224,40268,2,0,B|192:224|192:224|232:264,1,130
288,320,40632,1,0
288,320,40814,1,4
256,48,41359,6,0,B|168:48|168:128,1,130,0|4
256,280,41905,1,0
256,192,42086,2,0,B|328:240|328:240|328:152|328:152|408:192,1,260
496,192,42632,1,4
152,48,43177,5,0
104,48,43267,1,0
56,48,43358,1,0
56,136,43541,1,0
144,136,43723,1,0
376,136,44086,1,0
376,48,44268,1,0
464,48,44450,1,0
464,136,44632,1,0
464,224,44814,1,0
432,256,44905,1,0
392,272,44996,2,0,B|352:232|352:232|352:288|352:288|312:232|312:232|312:288|312:288|272:232|272:232|272:288|272:288|232:232|232:232|232:288|232:288|64:288,1,650
64,200,46086,6,0,B|176:200|176:200|208:168,1,130
192,96,46450,1,0
96,96,46632,2,0,B|128:16|192:-16|280:24|288:128,1,260
288,184,47177,1,0
288,280,47359,1,0
376,280,47541,2,0,B|464:280|464:200,2,130
120,280,48268,1,0
24,280,48450,1,0
120,280,48632,1,4
304,264,48996,5,0
336,232,49086,1,0
344,184,49177,1,0
336,96,49359,2,0,B|408:96|432:184,1,130,0|4
432,352,49905,1,0
248,352,50268,1,0
152,352,50450,1,0
56,352,50632,1,0
56,256,50814,2,0,B|56:96|56:96|192:96|192:200|192:200|248:96|304:96|304:96|304:256|304:256|472:256,1,780,4|0
416,256,52086,5,0
416,160,52268,2,0,B|416:24,1,130,0|4
416,30,52814,1,4
160,32,53177,2,0,B|24:32,2,130
248,32,53723,2,0,B|344:88|344:88|240:128|264:200,1,260
264,280,54268,1,0
264,320,54359,1,0
264,360,54450,1,0
32,136,54814,5,0
32,136,54905,1,0
32,136,54996,1,0
32,48,55177,2,0,B|120:48|120:128,1,130,0|2
24,368,55723,1,0
112,344,55905,1,0
44,289,56086,2,0,B|92:209|180:273,1,130
200,336,56450,1,0
152,256,56632,2,0,B|234:225|282:305,1,130
344,336,56996,1,2
408,280,57177,1,0
472,336,57359,1,2
472,40,57723,5,2
408,104,57905,1,0
344,40,58086,1,2
408,104,58268,1,4
104,104,58632,2,0,B|40:104|72:40|112:16|192:64|192:112|149:161|80:168,1,260
24,216,59177,1,0
48,304,59359,1,0
128,352,59541,2,0,B|400:352,1,260,2|0
464,304,60086,1,0
392,248,60268,2,0,B|256:248,1,130,0|2
192,192,60632,1,0
256,128,60814,2,0,B|400:128,1,130,2|0
384,32,61177,5,4
384,32,61541,1,0
288,32,61723,1,0
192,32,61905,1,0
104,32,62086,2,0,B|32:32|32:32|32:104,1,130
32,184,62450,2,0,B|32:256|32:256|104:256,1,130
184,256,62814,2,0,B|184:112,2,130,2|0|6
440,264,63541,5,0
368,208,63723,1,0
440,152,63905,1,0
368,96,64086,1,0
440,264,64450,1,0
280,352,64814,5,0
232,272,64996,1,0
280,192,65177,1,0
232,112,65359,2,0,B|336:80|408:152|376:264|288:288,1,260
296,312,65905,1,0
232,328,66086,2,2,B|160:328|160:328|104:272|104:272|160:216|160:216|120:184|160:152|160:152|104:96|104:96|160:48|160:48|224:48,1,520,0|4
128,56,68450,5,0
256,56,68632,1,0
384,56,68814,2,0,B|456:56,2,65,4|0|4
256,56,69177,2,0,B|256:192,1,130,2|0
256,312,69541,2,0,B|256:176,1,130,2|0
384,184,69905,2,0,B|248:184,1,130,2|0
120,184,70268,2,0,B|264:184,1,130,2|0
250,184,70632,1,2
24,56,70996,1,2
24,184,71177,1,2
250,184,71541,5,0
248,184,71905,2,0,B|248:48|248:48|464:150|464:150|456:312|312:336|312:336|312:176,1,780,2|0
168,184,73177,1,2
168,328,73359,1,0
312,328,73541,1,2
480,104,73905,1,0
352,104,74086,1,2
32,104,74450,1,2
416,104,74814,2,0,B|416:120|416:120|400:136|400:136|432:144|432:144|400:160|400:160|424:176|424:176|416:184,5,130,2|0|0|0|0|0
392,296,75905,6,0,B|256:296,1,130
128,296,76268,2,0,B|264:296,1,130,0|2
256,162,76632,1,0
256,32,76814,2,0,B|256:168,1,130,0|2
40,16,77359,5,0
152,80,77541,1,0
40,144,77723,1,0
152,216,77905,2,0,B|40:288|40:288|152:360,1,260
256,288,78450,6,0,B|256:144,2,130
368,360,78996,2,0,B|475:292|475:292|363:220,1,260
472,144,79541,1,0
360,80,79723,1,0
472,16,79905,1,0
360,80,80086,2,0,B|488:152,2,130
256,56,80814,6,0,B|256:192,1,130,2|0
256,312,81178,2,0,B|256:176,1,130,2|0
128,184,81542,2,0,B|264:184,1,130,2|0
392,184,81905,2,0,B|248:184,1,130,2|0
262,184,82269,1,2
488,56,82633,1,2
488,184,82814,1,2
262,184,83178,5,0
264,184,83541,2,0,B|264:48|264:48|48:150|48:150|56:312|200:336|200:336|200:176,1,780,2|0
344,184,84813,1,2
344,328,84995,1,0
200,328,85177,1,2
32,104,85542,1,0
160,104,85723,1,2
480,104,86087,1,2
96,104,86450,2,0,B|96:120|96:120|112:136|112:136|80:144|80:144|112:160|112:160|88:176|88:176|96:184,5,130,2|0|0|0|0|0
120,296,87542,6,0,B|256:296,1,130
384,296,87905,2,0,B|248:296,1,130,0|2
256,162,88269,1,0
256,32,88451,2,0,B|256:168,1,130,0|2
472,16,88996,5,0
360,80,89178,1,0
472,144,89360,1,0
360,216,89542,2,0,B|472:288|472:288|360:360,1,260
256,288,90087,6,0,B|256:144,2,130
144,360,90633,2,0,B|37:292|37:292|149:220,1,260
40,144,91178,1,0
152,80,91360,1,0
40,16,91542,1,0
152,80,91723,2,0,B|24:152,2,130
256,128,102632,5,0
192,192,102814,1,0
256,256,102996,1,0
320,192,103177,1,0
256,16,103541,5,0
160,16,103723,1,0
112,16,103814,1,0
64,16,103905,1,0
64,104,104086,1,4
448,352,104632,6,0,B|376:352|376:352,2,65,0|0|4
448,80,105359,5,0
448,80,105541,1,0
368,32,105723,1,0
368,120,105905,1,0
288,80,106086,1,0
208,32,106268,2,0,B|152:40|152:112|208:120,1,130
288,152,106632,2,0,B|336:168|336:240|280:256,1,130
200,256,106996,1,4
24,192,107359,5,0
96,240,107541,1,0
96,192,107632,1,0
96,144,107723,1,4
24,352,108086,1,0
112,352,108268,2,0,B|248:352,3,130
336,352,108996,1,4
480,32,109723,5,0
432,32,109814,1,0
384,32,109905,1,0
32,32,110450,1,0
80,32,110541,1,0
128,32,110632,1,0
256,360,111177,5,0
256,312,111268,1,0
256,264,111359,1,0
256,168,111541,1,0
256,72,111723,2,0,B|344:72|344:152,2,130
256,72,112268,2,0,B|160:72|160:144,2,130
256,72,112814,1,4
88,136,113177,2,0,B|24:192|104:264,1,130
160,192,113541,1,0
344,192,113905,2,0,B|480:192,2,130
248,192,114450,1,0
248,192,114541,1,0
248,192,114632,1,4
24,352,115177,5,0
112,352,115359,1,0
168,280,115541,1,0
224,352,115723,1,4
408,352,116086,1,0
312,352,116268,1,0
408,352,116450,1,0
360,272,116632,1,0
360,224,116723,1,0
360,176,116814,1,0
360,80,116996,2,0,B|416:80|416:80|480:96|480:96|480:24|480:24|432:0|432:0|352:24|352:24|288:8|288:8|288:88|288:88|192:120|288:168|288:168|288:240,1,650
288,304,118086,5,0
216,360,118268,1,0
216,360,118359,1,0
216,360,118450,1,0
120,360,118632,2,0,B|24:304|24:304|40:224|40:224|112:224,1,260
352,224,119359,2,0,B|424:224|424:224|456:168,1,130
448,80,119723,1,0
368,40,119905,2,0,B|104:40,1,260
16,40,120450,1,0
64,120,120632,1,4
224,328,120996,6,0,B|264:368|264:368|352:368,1,130
424,344,121359,1,0
464,264,121541,2,0,B|480:184|416:136|344:144|312:176|296:224,1,260
248,288,122086,1,0
160,272,122268,1,0
80,224,122450,1,0
32,144,122632,1,0
120,144,122814,2,0,B|208:144|248:80|264:16|264:16|448:16|448:16|448:104|448:104|408:144,1,520,4|0
200,352,123905,6,0,B|64:352,2,130
288,352,124450,1,4
432,248,124814,1,4
368,80,125177,1,0
296,24,125359,1,0
224,80,125541,1,0
296,128,125723,1,0
224,192,125905,1,0
296,248,126086,1,0
368,192,126268,1,0
296,128,126450,1,4
32,32,126814,5,0
32,80,126905,1,0
32,128,126996,1,0
88,192,127177,1,0
32,256,127359,2,0,B|32:352|32:352|104:312|104:312|184:352,1,260
264,352,127905,2,0,B|264:256|264:256|312:288,1,130
360,336,128268,1,0
432,280,128450,2,0,B|464:256|464:256|464:360,1,130
360,336,128814,1,0
360,288,128905,1,0
360,240,128996,1,0
440,192,129177,1,0
360,144,129359,1,4
128,40,129723,6,0,B|104:24|104:24|56:24|56:24|56:88,1,130
56,168,130086,1,0
56,256,130268,2,0,B|72:328|72:328|136:368|136:368|192:328|192:328|224:256|224:256,1,260
280,32,130996,2,0,B|336:0|408:32,1,130
472,96,131359,1,0
472,184,131541,2,0,B|312:184|312:184|400:240,1,260
320,280,132086,1,0
280,304,132177,1,0
240,328,132268,1,0
176,264,132450,2,0,B|136:320|136:320|176:376,2,130
248,208,132996,1,0
392,96,133177,1,4
32,32,133541,5,0
32,120,133723,1,0
32,208,133905,2,0,B|120:208|120:128,2,130
32,296,134450,2,0,B|32:368|32:368|136:368|136:368|112:296|112:296|216:296|216:376,1,390
304,360,135177,1,4
472,40,135541,5,0
408,104,135723,1,0
344,40,135905,2,0,B|256:40|256:128,1,130
256,296,136450,1,4
440,296,136814,1,2
256,296,136996,1,2
72,296,137177,1,2
256,208,137541,12,4,139177
128,56,140450,5,0
256,56,140632,1,0
384,56,140814,2,0,B|456:56,2,65,4|0|4
256,56,141177,2,0,B|256:192,1,130,2|0
256,312,141541,2,0,B|256:176,1,130,2|0
384,184,141905,2,0,B|248:184,1,130,0|0
120,184,142268,2,0,B|264:184,1,130,0|0
250,184,142632,1,2
24,56,142996,1,0
24,184,143177,1,0
250,184,143541,5,0
248,184,143905,2,0,B|248:48|248:48|464:150|464:150|456:312|312:336|312:336|312:176,1,780,2|0
168,184,145177,1,0
168,328,145359,1,0
312,328,145541,1,2
480,104,145905,1,0
352,104,146086,1,2
32,104,146450,1,0
416,104,146814,2,0,B|416:120|416:120|400:136|400:136|432:144|432:144|400:160|400:160|424:176|424:176|416:184,5,130,0|0|0|0|0|0
392,296,147905,6,0,B|256:296,1,130
128,296,148268,2,0,B|264:296,1,130,0|2
256,162,148632,1,0
256,32,148814,2,0,B|256:168,1,130,0|2
40,16,149359,5,0
152,80,149541,1,0
40,144,149723,1,0
152,216,149905,2,0,B|40:288|40:288|152:360,1,260
256,288,150450,6,0,B|256:144,2,130
368,360,150996,2,0,B|475:292|475:292|363:220,1,260
472,144,151541,1,0
360,80,151723,1,0
472,16,151905,1,0
360,80,152086,2,0,B|488:152,2,130
256,56,152814,6,0,B|256:192,1,130,2|0
256,312,153178,2,0,B|256:176,1,130,2|0
128,184,153542,2,0,B|264:184,1,130,0|0
392,184,153905,2,0,B|248:184,1,130,0|0
262,184,154269,1,2
488,56,154633,1,0
488,184,154814,1,0
262,184,155178,5,0
264,184,155541,2,0,B|264:48|264:48|48:150|48:150|56:312|200:336|200:336|200:176,1,780,2|0
344,184,156813,1,0
344,328,156995,1,0
200,328,157177,1,2
32,104,157542,1,0
160,104,157723,1,2
480,104,158087,1,0
96,104,158451,2,0,B|96:120|96:120|112:136|112:136|80:144|80:144|112:160|112:160|88:176|88:176|96:184,5,130,0|0|0|0|0|0
120,296,159542,6,0,B|256:296,1,130
384,296,159905,2,0,B|248:296,1,130,0|2
256,162,160269,1,0
256,32,160451,2,0,B|256:168,1,130,0|2
472,16,160996,5,0
360,80,161178,1,0
472,144,161360,1,0
360,216,161542,2,0,B|472:288|472:288|360:360,1,260
256,288,162087,6,0,B|256:144,2,130
144,360,162633,2,0,B|37:292|37:292|149:220,1,260
40,144,163178,1,0
152,80,163360,1,0
40,16,163542,1,0
152,80,163723,2,0,B|24:152,2,130
64,104,186996,6,2,B|56:40|96:0|152:-8|224:24|208:80|208:120,1,260
136,88,188086,2,0,B|136:224,1,130,0|0
136,296,188814,1,2
136,296,188996,1,2
208,272,189359,6,0,B|216:336|176:376|120:392|64:328,1,195,0|2
40,32,190632,1,2
40,32,190814,1,2
256,120,191359,1,0
384,32,191723,6,0,B|248:32,1,130
384,32,192450,2,0,B|520:32,1,130
384,32,193177,2,0,B|384:168,3,130
352,232,194632,2,2,B|392:248|432:224,1,65
416,312,195177,2,2,B|384:328|336:304,1,65
264,312,195723,2,2,B|184:312|184:312|264:232|264:232|192:232,1,260,0|2
200,232,196632,1,2
48,48,197177,5,0
200,48,197541,1,0
200,48,197723,2,0,B|272:48,1,65
265,48,198086,1,2
265,48,198268,1,2
424,48,198632,1,2
360,192,198996,6,0,B|368:144|432:120|480:152,1,130,0|2
432,216,199905,1,0
432,216,200087,2,0,B|432:352,1,130,2|0
432,346,200632,1,0
432,344,200814,2,0,B|368:366|296:342,1,130,2|0
304,344,201359,1,2
176,256,201723,2,0,B|240:232|304:256,1,130,2|2
304,256,202268,1,2
432,160,202632,2,0,B|368:184|296:158,1,130,2|0
304,160,203177,1,0
307,163,203359,6,0,B|214:257,1,130,0|0
125,348,204086,2,0,B|218:254,1,130
124,163,204814,2,0,B|220:259,1,130
215,255,205359,2,0,B|319:150,2,130
215,255,206268,1,0
215,255,206450,2,0,B|123:346|123:346|27:250,1,260
32,96,207541,6,0,B|104:96,1,65,0|2
97,96,207905,1,2
176,96,208086,1,0
176,96,208268,2,0,B|176:144|224:184|272:168,2,130
256,96,209177,1,2
256,96,209359,2,0,B|328:96,1,65,2|0
321,96,209723,1,0
400,96,209905,1,2
400,96,210086,1,0
360,32,210268,2,0,B|416:-8|520:56|456:152,1,195,2|0
469,127,210996,1,2
469,127,211177,1,2
376,344,211723,6,0,B|440:384|504:336,2,130
216,344,212814,2,0,B|296:344,2,65
216,344,213541,2,2,B|88:344|96:216,1,195
95,225,214268,1,0
248,224,214632,1,2
96,40,215177,5,0
176,40,215359,1,0
256,40,215541,1,0
336,40,215723,1,0
416,40,215905,2,0,B|416:112|352:136|296:104,1,130
333,117,216450,1,0
333,117,216632,2,0,B|267:117,1,65,0|2
264,272,217177,1,2
112,272,217541,1,2
112,112,217905,2,0,B|184:112|184:112|184:176,2,130,2|0|2
264,112,218996,1,2
264,272,219359,2,0,B|400:272,1,130,2|2
394,272,219905,1,2
392,40,220450,5,0
160,40,220996,2,0,B|88:40,2,65,0|0|2
224,40,221541,2,0,B|296:40,2,65,0|0|2
192,96,222086,2,0,B|192:168,1,65,0|2
192,161,222450,1,0
192,161,222632,2,0,B|128:168|104:224|128:272,1,130
192,240,223359,1,0
120,248,223723,2,0,B|128:320|192:320|224:312,1,130,2|0
192,240,224450,1,0
212,314,224814,2,0,B|280:296|288:208|232:168,5,130,2|0|2|0|2|2
264,211,226814,1,2
264,56,227177,5,0
264,56,227359,1,0
264,56,227541,2,0,B|352:56|352:136,1,130
352,128,228086,1,0
352,128,228268,1,0
352,128,228450,2,0,B|352:208|256:208,1,130
272,208,229177,2,0,B|184:208|184:120,1,130
192,368,230268,1,0
344,368,230632,1,0
256,208,230996,12,4,234268
