osu file format v6

[General]
AudioFilename: niconicochorusshort.mp3
AudioLeadIn: 3000
PreviewTime: 1050
Countdown: 0
SampleSet: Normal
StackLeniency: 0.4
Mode: 0
LetterboxInBreaks: 1
SkinPreference:Default

[Editor]
DistanceSpacing: 0.800000011920929
BeatDivisor: 4
GridSize: 8

[Metadata]
Title:Meltdown
Artist:NicoNico Chorus/ Kagamine Rin
Creator:SeymourLyon
Version:Insane
Source:iroha (sasaki)
Tags:Roshin Yuukai Melt down Nico Vocaloid Itsuu Itsuu-P Derekku Chan Zatoichi

[Difficulty]
HPDrainRate:6
CircleSize:5
OverallDifficulty:7
SliderMultiplier:1.8
SliderTickRate:2

[Events]
//Background and Video events
0,0,"meltdown.jpg"
//Break Periods
2,24886,35786
2,45613,46695
2,95068,96877
//Storyboard Layer 0 (Background)
//Storyboard Layer 1 (Fail)
//Storyboard Layer 2 (Pass)
//Storyboard Layer 3 (Foreground)
//Storyboard Sound Samples
//Background Colour Transformations
3,100,0,0,0

[TimingPoints]
1050,363.636363636364,4,1,0,70,1,0
7231,-100,4,1,0,60,0,0
8595,-100,4,1,0,70,0,0
36504,-200,4,2,0,70,0,0
47413,-200,4,2,0,80,0,0
94868,-100,4,2,0,60,0,0
106322,-100,4,1,0,30,0,0
119231,-200,4,1,0,70,0,0
120322,-100,4,1,0,75,0,0
131777,-200,4,1,0,70,0,0
133050,-50,4,1,0,69,0,0
134868,-100,4,1,0,69,0,0
157777,-200,4,1,0,69,0,0

[Colours]
Combo1 : 255,247,183
Combo2 : 225,255,255
Combo3 : 255,187,250
Combo4 : 254,186,186

[HitObjects]
120,352,1050,1,0
120,280,1231,1,0
120,208,1413,1,0
120,168,1504,1,0
120,128,1595,1,0
120,64,1777,2,0,B|256:192,1,180,6|4
376,56,2504,2,0,B|248:192,1,180,4|4
384,312,3231,2,0,B|248:184,1,180,6|0
253,188,3777,2,0,B|120:320,4,180
480,32,5595,5,0
408,32,5777,1,0
408,104,5959,1,0
480,104,6140,1,4
336,352,6504,1,0
408,352,6686,1,6
120,352,7050,1,2
120,64,7413,2,0,B|24:64,6,90
192,64,8686,1,0
256,96,8868,1,0
192,136,9050,1,6
424,304,9413,1,0
368,352,9595,1,6
80,336,9959,5,0
80,256,10140,1,0
80,184,10322,1,0
152,184,10504,2,0,B|152:128|80:104,2,90,2|0|0
152,256,11050,2,0,B|160:312|224:312,1,90,0|2
216,240,11413,1,0
216,168,11595,2,0,B|288:96,1,90
328,152,11959,2,0,B|400:224,1,90,2|0
440,264,12322,1,0
384,312,12504,2,0,B|424:352|488:328,2,90,2|2|0
320,280,13050,1,0
56,160,13413,6,0,B|56:56|176:56,1,180,6|0
400,240,14140,2,0,B|400:344|280:344,1,180,6|0
296,56,14868,2,0,B|400:56|400:176,1,180,6|0
399,174,15413,1,6
160,344,15777,2,0,B|56:344|56:224,3,180,0|0|0|0
272,32,17231,5,0
328,80,17413,1,0
384,128,17595,1,0
440,168,17777,2,0,B|472:112|416:64,2,90,2|0|0
384,208,18322,1,4
136,352,18686,1,4
32,80,19050,2,4,B|104:24|104:24|184:80|184:80|104:144|104:144|32:144,1,360
304,32,20140,2,0,B|400:32,1,90
464,32,20504,1,0
432,96,20686,1,6
288,344,21050,1,4
216,344,21231,2,0,B|128:344|128:344|64:272,1,180,0|2
64,200,21777,5,0
64,128,21959,1,0
64,56,22140,1,2
352,56,22504,1,0
424,56,22686,1,2
432,344,23050,2,0,B|360:344|360:344|440:256|440:256|336:256,1,270,2|0
288,256,23777,1,0
288,320,23959,1,0
216,336,24140,2,0,B|216:240,1,90
144,256,24504,1,0
144,320,24686,1,6
440,328,36686,5,2
440,328,36868,1,2
328,328,37413,1,0
216,328,37959,1,2
216,328,38140,1,2
216,328,38322,1,2
72,328,39050,1,0
72,328,39231,1,0
72,328,39413,1,0
72,328,39595,1,2
72,184,40322,1,0
72,112,40686,1,2
208,72,41413,5,0
208,104,41595,1,0
224,136,41777,1,0
256,144,41959,1,0
288,136,42140,1,0
312,112,42322,1,0
312,72,42504,1,2
456,72,43231,6,0,B|456:184,1,90,2|0
456,304,44322,2,0,B|360:304,1,90
328,304,44868,1,0
288,304,45050,1,0
248,304,45231,1,0
208,304,45413,1,2
72,56,47595,5,2
216,56,48322,2,0,B|400:56,1,180,2|0
400,128,49413,1,2
400,128,49595,2,0,B|400:280,1,135,2|0
328,264,50504,1,0
272,216,50868,1,0
216,264,51231,1,2
216,264,51413,1,2
24,360,51959,5,0
24,216,52322,1,0
24,216,52504,1,2
24,144,52868,1,0
24,144,53050,1,2
24,72,53413,1,0
96,72,53777,1,0
120,96,53959,1,0
152,96,54140,1,2
176,72,54322,1,2
248,72,54686,1,0
248,72,54868,1,0
320,72,55231,1,0
344,96,55413,1,0
376,96,55595,1,2
400,72,55777,1,2
480,72,56140,1,0
480,72,56322,1,0
488,360,57050,5,2
488,360,57231,1,2
128,360,58140,5,2
128,288,58322,1,0
128,216,58504,1,0
128,144,58686,1,0
128,72,58868,1,2
416,72,59595,5,0
416,72,59959,1,2
416,216,60504,1,0
416,216,60686,1,0
416,360,61050,1,0
416,360,61231,1,0
272,360,61595,1,0
200,360,61777,1,0
200,216,62140,1,2
168,152,62322,1,2
312,152,62686,1,0
384,152,62868,1,2
347,214,63050,1,2
40,32,63959,6,0,B|152:32,1,90
272,32,64686,2,0,B|160:32,1,90
40,32,65413,1,0
40,176,65777,2,0,B|112:232|112:232|184:176,1,180,4|6
304,96,66868,1,2
376,96,67050,1,2
376,168,67231,1,2
304,168,67413,1,2
64,336,68140,5,0
64,264,68322,1,0
64,192,68504,1,0
64,120,68686,1,2
64,48,68868,1,2
208,48,69231,2,0,B|328:48,1,90
368,48,69777,1,2
368,120,69959,1,0
368,192,70140,1,0
368,264,70322,1,0
368,336,70504,1,2
224,336,70868,1,2
72,176,71413,6,0,B|32:208,2,45,0|0|0
184,88,72140,1,0
256,88,72322,1,0
376,160,72686,2,0,B|416:200,2,45,0|0|0
368,304,73413,1,0
296,304,73595,1,0
224,304,73777,1,0
80,304,74140,2,0,B|24:216|88:120,2,180,4|0|4
152,304,75777,1,4
296,304,76140,5,0
368,304,76322,1,0
368,232,76504,1,2
368,160,76686,2,0,B|312:112|264:192,1,90,2|2
160,232,77413,2,2,B|104:272|48:208,1,90
72,88,78140,2,2,B|120:40|184:112,1,90
296,88,78868,1,0
440,88,79231,1,2
440,232,79595,1,2
296,232,79959,2,0,B|296:304|224:384|136:384|64:304|64:224,1,360,6|4
64,160,81595,1,4
160,56,81959,5,2
88,56,82140,1,2
232,56,82504,1,0
304,56,82686,1,0
376,56,82868,1,0
448,56,83050,1,0
448,128,83231,2,2,B|376:128|376:128|376:192|448:192|448:192|448:224,1,180
448,336,84322,2,2,B|448:264|448:264|376:280|376:352,1,180
304,336,85231,1,0
232,336,85413,1,2
160,336,85595,1,0
88,336,85777,2,2,B|8:336|8:336|136:264|16:176|16:176|104:176,1,360
160,176,87413,1,0
160,32,87777,5,0
160,32,87959,1,0
232,32,88140,1,2
304,32,88322,2,2,B|352:32,1,45
424,32,88686,2,0,B|424:128,1,90,0|2
424,264,89413,2,0,B|424:168,1,90,0|2
424,32,90140,1,2
184,184,90868,1,4
328,184,91231,1,4
256,208,91595,12,4,94868
256,48,97777,5,0
256,48,97959,1,0
152,312,98504,1,0
392,152,99050,1,0
104,152,99413,1,0
344,312,99777,1,0
344,312,99959,1,0
256,48,100322,1,0
152,312,100686,6,0,B|240:256,1,90,2|2
392,152,101231,2,2,B|288:152,1,90
104,152,101777,2,2,B|200:216,1,90
344,312,102322,1,2
256,48,102686,2,2,B|256:144,1,90
256,336,103231,1,2
48,128,103595,5,0
48,56,103777,1,4
264,48,104140,1,0
336,48,104322,1,4
480,208,104686,1,0
480,280,104868,1,4
200,344,105231,1,4
40,104,105595,2,0,B|40:224,1,90,0|4
40,344,106140,1,4
200,344,106504,6,0,B|296:344,1,90,8|0
360,344,106868,1,0
432,344,107050,2,0,B|496:344|496:272,1,90,0|8
496,216,107413,1,0
496,144,107595,1,0
496,72,107777,2,0,B|392:72|392:192,1,180,8|8
112,256,108504,1,0
40,256,108686,1,8
40,184,108868,1,0
112,184,109050,1,8
112,112,109231,1,0
40,112,109413,6,0,B|32:56|112:32,1,90
160,40,109777,1,0
232,40,109959,2,0,B|296:48|304:112,1,90,0|8
232,112,110322,1,0
232,184,110504,1,0
160,184,110686,2,8,B|168:240|200:248|232:280|288:240|296:208,1,180
328,160,111231,1,0
368,96,111413,1,0
296,96,111595,2,8,B|296:32|352:8|400:16|440:40|432:96,1,180
416,344,112322,5,0
488,344,112504,2,8,B|472:272|416:256|360:272|344:336,1,180
304,352,113050,2,0,B|272:304|312:256,1,90
352,216,113413,1,0
424,216,113595,2,8,B|416:152|360:128|304:144|280:200,1,180
248,232,114140,1,0
216,296,114322,2,0,B|168:320|120:288,3,90,0|0|8|8
272,40,115231,5,0
344,32,115413,2,8,B|344:88|304:128|240:120|208:72,1,180
144,88,115959,1,0
144,16,116140,2,0,B|72:24|64:80|64:128|128:160,1,180,0|0
176,160,116686,1,8
216,96,116868,2,0,B|256:128|248:184,5,90,0|8|0|8|0|8
480,352,118140,6,0,B|400:272,1,90
344,288,118504,1,0
272,288,118686,2,0,B|184:376,1,90
64,352,119231,1,0
64,280,119413,2,2,B|32:248|32:248|88:208|88:208|32:168|32:168|80:128,1,225
88,112,120413,1,0
120,88,120504,1,0
160,80,120595,1,0
200,80,120686,1,0
232,96,120777,1,0
264,120,120868,1,6
320,176,121050,6,0,B|384:240|384:240|448:176,1,180
496,112,121595,2,0,B|424:40,1,90
376,112,121959,1,0
320,176,122140,1,0
256,232,122322,1,6
216,232,122413,1,0
176,232,122504,1,0
96,232,122686,2,0,B|40:232|40:288,2,90,0|0|4
360,32,123413,5,0
416,80,123595,1,0
344,120,123777,2,0,B|368:168|432:168,1,90,0|4
96,216,124322,6,0,B|152:216|184:272|184:288|184:288|248:288,1,180,2|0
320,288,124868,1,0
360,216,125050,1,0
280,216,125231,5,2
280,136,125413,1,0
360,112,125595,5,0
360,32,125777,1,0
280,24,125959,5,0
200,24,126140,1,2
136,72,126322,5,0
136,152,126504,1,0
144,232,126686,2,0,B|64:312,1,90,0|4
312,64,127231,6,0,B|344:0|424:0|464:80,1,180
456,144,127777,1,0
456,224,127959,1,0
400,280,128140,1,4
72,280,128504,6,0,B|16:320|88:368,2,90,4|0|4
296,40,129231,5,0
376,40,129413,1,0
296,40,129595,1,0
216,40,129777,2,4,B|112:40|112:40|192:120,1,180
408,304,130504,6,4,B|472:360|472:360|368:360,1,180
296,360,131050,1,0
216,360,131231,1,0
136,360,131413,1,0
56,360,131595,1,0
136,360,131777,2,4,B|136:288|136:288|136:216|136:216|136:160|136:160|136:40|136:40,1,315,4|4
472,344,134050,6,6,B|472:280|472:280|424:336|424:336|424:248|424:248|360:320|360:320|360:208|360:208|280:304|280:304|280:176|280:176|232:256|184:256,1,810
120,296,135050,1,0
120,296,135140,1,0
120,296,135231,1,2
120,104,135595,5,2
120,24,135777,2,0,B|72:24,2,45,0|0|2
280,24,136322,5,0
352,48,136504,1,0
408,104,136686,1,0
328,120,136868,2,0,B|344:192|440:216|480:136,1,180,6|0
192,328,137595,6,0,B|160:264|56:264|40:352,2,180,6|0|6
488,192,138686,5,0
488,272,138868,1,0
488,352,139050,1,0
408,352,139231,2,0,B|312:352|312:352|312:264,1,180,6|0
312,184,139777,2,0,B|312:80|432:80,1,180,6|0
256,352,140504,2,4,B|216:308|216:308|216:240|296:280|296:280|328:256|328:192|248:232|216:216|216:152|288:192|328:168|352:88|224:72,1,450
176,80,141595,1,0
176,160,141777,1,0
96,160,141959,1,0
96,80,142140,1,2
408,160,142504,1,0
456,96,142686,1,6
280,352,143050,5,0
200,352,143231,1,0
120,352,143413,1,0
56,304,143595,1,2
56,304,143777,1,0
56,224,143959,1,0
56,144,144140,5,0
56,144,144231,1,0
56,144,144322,1,2
56,64,144504,1,0
128,24,144686,2,0,B|128:216,1,180
128,280,145231,2,0,B|224:280,1,90
200,200,145595,2,0,B|264:192|320:248|288:328,1,180
216,352,146140,1,6
256,32,146504,6,0,B|440:32,1,180
256,32,147231,2,0,B|72:32,1,180,0|4
256,32,147959,2,0,B|256:224,1,180,6|0
176,216,148504,2,0,B|192:296|288:312|336:232,1,180,4|4
472,24,149231,2,6,B|552:136|344:248|480:384,1,360
176,360,150322,5,0
176,360,150413,1,0
176,360,150504,1,0
136,288,150686,2,0,B|72:312|96:392,1,90
120,32,151231,5,2
64,88,151413,2,0,B|112:128|192:112|200:24,1,180,0|6
480,192,152140,6,0,B|504:240|480:296,1,90,2|0
432,336,152504,1,0
352,344,152686,1,0
272,344,152868,1,0
192,336,153050,1,0
128,288,153231,2,0,B|184:280|192:216,1,90
112,208,153595,1,0
56,264,153777,2,0,B|8:208|32:128|104:120|136:128,1,180,6|2
144,128,154231,1,0
176,144,154322,1,2
440,336,154686,6,0,B|496:328|504:272,1,90
424,256,155050,1,0
368,312,155231,2,0,B|320:264|344:176|424:176,1,180,2|0
496,176,155777,2,0,B|488:120|432:104,1,90,0|2
360,112,156140,1,0
288,152,156322,1,0
240,216,156504,1,0
192,280,156686,1,0
136,336,156868,2,0,B|80:360|40:312,1,90,0|6
56,240,157231,2,0,B|104:280|160:224,1,90,0|6
336,24,157777,5,0
496,24,158140,2,0,B|496:208,1,180,6|0
496,240,159050,1,0
496,280,159231,1,0
496,320,159413,1,0
496,360,159595,2,2,B|312:360,1,180
256,304,160686,1,0
192,360,161050,2,2,B|8:360,1,180
16,200,162504,6,0,B|120:200,1,90
184,200,163231,1,0
264,200,163595,1,0
344,200,163959,2,6,B|448:200|448:200|488:168|488:168|440:136|440:136|488:104|488:104|440:72|440:72|488:40|488:40|440:16|440:16|320:16,1,540
296,16,166322,1,0
256,16,166504,1,0
216,16,166686,2,0,B|64:16,1,135,4|4
80,232,168322,1,0
136,336,169050,5,4
152,336,169140,1,0
168,336,169231,1,0
208,336,169413,2,0,B|256:336,1,45
296,336,169777,1,0
296,336,169959,1,4
376,336,170322,1,0
456,336,170686,1,0
456,256,171050,5,0
456,216,171231,1,0
456,176,171413,1,0
456,136,171595,1,0
456,96,171777,1,0
456,56,171959,1,0
376,56,172322,1,0
376,136,172686,2,0,B|376:240,1,90,4|0
296,232,173413,1,0
216,232,173777,1,0
136,232,174140,2,0,B|136:128,1,90,4|0
256,208,175595,12,4,181413
