osu file format v6

[General]
AudioFilename: niconicochorus.mp3
AudioLeadIn: 0
PreviewTime: 68450
Countdown: 1
SampleSet: Normal
StackLeniency: 0.5
Mode: 0
LetterboxInBreaks: 1
SkinPreference:Default

[Editor]
DistanceSpacing: 1
BeatDivisor: 4
GridSize: 8

[Metadata]
Title:Meltdown
Artist:NicoNico Chorus/ Kagamine Rin
Creator:SeymourLyon
Version:Hard
Source:iroha (sasaki)
Tags:Roshin Yuukai Melt down Nico Vocaloid Itsuu Itsuu-P Derekku Chan Zatoichi

[Difficulty]
HPDrainRate:4
CircleSize:4
OverallDifficulty:6
SliderMultiplier:1.4
SliderTickRate:1

[Events]
//Background and Video events
0,0,"meltdown.jpg"
//Break Periods
2,9013,19400
2,92286,101582
//Storyboard Layer 0 (Background)
//Storyboard Layer 1 (Fail)
//Storyboard Layer 2 (Pass)
//Storyboard Layer 3 (Foreground)
//Storyboard Sound Samples
//Background Colour Transformations
3,100,0,0,0

[TimingPoints]
7359.6626506024,363.636363636364,4,1,0,70,1,0
65919,-200,4,1,0,75,0,0
66177,-200,4,2,0,0,0,0
68100,-100,4,1,0,75,0,0

[Colours]
Combo1 : 255,247,183
Combo2 : 225,255,255
Combo3 : 255,187,250
Combo4 : 254,186,186

[HitObjects]
256,192,7359,1,0
192,160,7541,1,0
192,160,7723,1,0
248,120,7905,2,0,B|296:120|328:168,1,70
320,216,8268,1,0
320,216,8450,1,0
264,264,8632,2,0,B|216:264|184:216,1,70,0|4
392,304,20450,5,2
336,256,20632,1,2
456,192,20996,1,0
456,120,21177,1,0
392,152,21359,1,0
392,80,21541,2,0,B|416:48|456:40,2,70
280,168,22268,2,0,B|224:248|168:168,1,140
56,80,22996,1,0
200,80,23359,1,2
128,80,23541,1,2
48,312,24268,5,0
112,336,24450,2,0,B|160:320|168:288,1,70
136,232,24814,1,0
72,208,24996,2,0,B|80:168|128:152,1,70
184,160,25359,1,0
256,160,25541,1,0
392,160,25905,1,0
256,160,26268,1,2
256,160,26450,1,2
64,56,27177,5,0
200,56,27541,1,0
200,56,27723,1,0
272,56,27905,2,0,B|344:56,1,70
408,56,28268,1,0
408,56,28450,1,0
408,192,28814,2,0,B|408:112,2,70,0|0|2
408,192,29359,1,2
320,40,30086,5,2
176,40,30450,1,2
176,112,30632,1,0
176,184,30814,1,2
176,184,30996,1,0
176,256,31177,1,0
176,328,31359,1,6
352,216,31905,6,0,B|408:208|400:280,1,70
192,288,32632,2,0,B|136:296|144:224,1,70
80,48,33359,2,0,B|120:48|144:88,1,70
80,112,33723,2,0,B|104:144|144:152,1,70
208,160,34086,1,0
208,160,34268,1,0
208,88,34450,2,0,B|200:40|248:24,2,70,0|2|0
208,160,34996,1,2
376,288,35541,6,0,B|448:288,1,70,0|0
440,144,36086,2,0,B|368:144,1,70,0|0
232,144,36632,1,2
304,144,36814,1,0
304,144,36996,1,2
48,88,37723,6,0,B|48:8,1,70,0|0
48,296,38450,2,0,B|48:368,1,70,0|0
224,192,39177,2,0,B|304:192,1,70
352,152,39541,1,0
408,192,39723,1,0
352,232,39905,1,0
296,272,40086,2,0,B|232:312,2,70,0|0|2
352,312,40632,1,0
424,312,40814,1,2
352,112,41359,5,0
424,112,41541,1,2
280,112,41905,1,2
208,112,42086,2,0,B|160:8|112:128,1,140
48,112,42632,1,6
440,336,43177,5,0
440,264,43359,1,0
440,192,43541,1,0
376,224,43723,2,0,B|360:176|376:144|416:112|464:128,1,140,0|0
440,56,44268,1,0
368,56,44450,1,0
320,112,44632,1,0
272,56,44814,1,0
200,56,44996,2,2,B|136:-8|72:64,3,140
80,128,46268,5,0
80,200,46450,1,0
48,264,46632,2,0,B|96:280|136:256|160:224|144:176,1,140
288,200,47359,2,0,B|208:200,2,70,0|2|0
288,200,47905,1,2
424,200,48268,1,0
424,200,48450,1,0
424,200,48632,1,2
96,200,48996,6,0,B|24:200,2,70
168,200,49541,1,2
168,336,49905,2,0,B|264:336|264:240,1,140
296,192,50450,1,0
240,152,50632,1,0
296,112,50814,2,2,B|360:120|392:152|408:240|344:296|272:280|240:240,1,280
48,48,51905,5,0
48,120,52086,2,0,B|120:120,1,70
120,48,52450,2,0,B|264:48,2,140
120,120,53359,1,0
176,160,53541,1,0
232,120,53723,2,0,B|288:216|352:96,1,140,2|2
384,72,54268,2,0,B|424:104|392:160,1,70,0|4
160,288,54814,5,0
104,248,54996,1,0
80,184,55177,2,0,B|104:152|152:176,1,70,0|4
336,288,55723,1,0
408,296,55905,1,0
432,232,56086,1,0
376,192,56268,2,0,B|376:152|432:144,1,70
488,120,56632,1,0
432,80,56814,2,0,B|360:80,3,70,4|2|0|2
56,224,57723,5,0
80,160,57905,1,0
144,176,58086,1,0
120,240,58268,1,4
168,112,58632,2,0,B|221:129|232:200|176:240,1,140,0|0
120,240,59177,1,0
64,288,59359,1,0
112,336,59541,2,0,B|264:336,1,140,2|0
320,336,60086,1,0
320,336,60268,1,0
392,336,60450,1,2
392,264,60632,1,0
392,264,60814,1,0
392,192,60996,1,0
464,192,61177,6,0,B|464:336,2,140,2|2|0
464,192,62086,1,0
464,120,62268,1,0
464,48,62450,2,0,B|392:48,1,70
320,48,62814,1,2
320,120,62996,1,0
392,120,63177,1,2
56,48,63541,5,0
128,48,63723,2,0,B|136:8|192:8,2,70
56,192,64450,2,2,B|56:344,1,140
128,336,64996,1,0
200,336,65177,1,0
272,336,65359,1,0
392,264,65723,1,0
392,336,65905,1,0
464,336,66086,2,0,B|464:16,1,315,4|4
80,64,68450,5,0
136,104,68632,1,0
136,104,68814,1,0
192,64,68996,1,0
264,64,69177,6,0,B|352:64|352:64|328:112,1,140,6|0
472,112,69905,2,0,B|440:176|440:176|512:176,1,140,6|0
368,176,70632,2,0,B|368:248|368:248|328:304,1,140,6|0
256,304,71177,1,6
152,208,71541,1,0
48,112,71905,2,2,B|48:40|48:40|128:40|128:112|128:112|160:40|264:40,1,350
328,40,72996,5,0
368,104,73178,1,0
432,136,73360,1,0
376,176,73542,1,4
192,296,73905,2,0,B|144:320|104:280,1,70,0|2
16,200,74450,2,0,B|96:200|96:200|136:144,1,140,2|2
136,80,74996,2,0,B|40:80|40:0,2,140
208,80,75905,2,0,B|296:80,1,70,0|2
344,80,76268,2,0,B|424:80,1,70,0|6
344,200,76814,1,2
416,200,76996,1,2
344,320,77359,5,0
200,320,77723,1,0
200,248,77905,1,4
64,320,78268,1,2
120,280,78450,2,0,B|144:240|104:192,1,70,0|2
64,248,78814,1,0
64,176,78996,1,0
120,136,79177,1,0
176,96,79359,2,0,B|144:56|96:72,2,70,2|0|2
232,136,79905,1,0
280,184,80086,2,0,B|248:216|192:192,2,70,6|0|6
456,40,80814,6,0,B|384:40|384:40|360:120,1,140,6|0
344,232,81541,2,0,B|416:232|416:232|440:160,1,140,6|0
440,304,82268,2,2,B|368:328|368:328|296:304,1,140,6|0
232,312,82814,1,6
88,312,83177,1,0
88,168,83541,2,2,B|160:168|160:168|216:96|272:168|272:168|216:216|216:216|280:264,1,350
344,256,84632,5,0
416,256,84814,1,0
416,256,84996,1,0
488,256,85177,2,0,B|520:184|480:112,1,140,6|0
416,120,85723,1,2
136,120,86086,1,0
280,120,86450,2,2,B|360:200|360:200|264:200|264:200|240:272|152:272,1,350
80,272,87541,5,0
112,208,87723,1,0
48,176,87905,1,0
104,136,88086,2,0,B|72:56|72:56|128:56,1,140,6|0
192,56,88632,1,6
448,216,88996,5,0
448,288,89177,2,0,B|496:296|504:344,2,70,6|0|6
256,296,89905,1,0
184,296,90086,1,0
112,296,90268,1,0
40,296,90450,2,0,B|40:344|-8:352,2,70
40,224,90996,1,2
112,224,91177,1,0
168,176,91359,1,2
112,128,91541,1,0
168,80,91723,2,0,B|144:48|88:56,1,70,2|0
32,56,92086,1,6
256,192,102632,5,0
256,192,102814,1,0
256,192,102996,1,0
256,192,103177,1,0
392,192,103541,5,0
392,120,103723,1,0
392,120,103905,1,0
392,48,104086,1,2
144,48,104632,5,0
144,120,104814,2,0,B|182:192|182:192|117:241|176:304,1,210,4|0
240,304,105541,2,0,B|304:272,1,70
360,232,105905,2,0,B|296:200,1,70
240,160,106268,2,0,B|304:128,1,70
360,88,106632,2,0,B|296:56,1,70,4|0
224,56,106996,1,6
80,320,107541,1,0
80,248,107723,1,6
80,88,108086,1,0
104,24,108268,2,0,B|40:8|-16:64|24:120|24:136,1,140,0|0
64,152,108814,1,0
136,152,108996,1,4
456,320,109723,5,0
384,320,109905,1,0
56,320,110450,1,0
128,320,110632,1,0
256,104,111177,1,0
296,40,111359,1,2
336,104,111541,1,0
376,40,111723,2,0,B|456:40,1,70
480,104,112086,1,0
408,104,112268,1,0
336,104,112450,2,0,B|336:152|296:168,2,70,2|0|6
40,344,113359,1,0
80,280,113541,2,0,B|112:344|112:344|192:344,1,140,2|0
208,280,114086,2,0,B|280:280|280:280|328:352,1,140,2|0
248,344,114632,1,4
472,40,115177,6,0,B|400:40,1,70
336,72,115541,2,0,B|264:72,1,70
128,40,116086,2,0,B|200:40,2,70
80,96,116632,1,0
128,144,116814,1,0
80,200,116996,2,0,B|120:232|184:216|200:160,3,140,2|0|0|0
224,104,118268,1,0
264,48,118450,2,0,B|304:24|336:56,1,70,0|2
328,48,118996,1,2
464,48,119359,1,2
464,120,119541,1,0
464,192,119723,1,0
464,192,119905,1,0
464,336,120268,5,0
464,264,120450,1,0
464,264,120632,2,0,B|416:264|376:304|384:360|408:376,1,140,6|0
325,364,121177,1,0
272,312,121359,1,0
224,256,121541,1,0
56,80,121905,1,0
104,32,122086,1,0
152,80,122268,2,0,B|224:80,2,70
224,80,122814,2,2,B|296:112|296:112|344:16|480:112,1,280,6|2
272,336,123905,5,0
272,264,124086,2,0,B|320:264|344:312,2,70,0|0|4
72,264,124814,1,4
72,72,125177,1,0
72,144,125359,2,0,B|128:200,1,70
192,200,125723,1,0
192,128,125905,1,0
192,56,126086,2,0,B|136:0,2,70,0|0|6
376,232,126814,6,0,B|432:288,1,70
480,328,127177,1,0
408,344,127359,2,0,B|264:344,1,140,6|0
200,320,127905,1,0
168,256,128086,2,0,B|176:208|232:200,1,70
280,216,128450,1,0
232,264,128632,2,0,B|264:288|320:280,1,70,0|2
368,280,128996,2,0,B|440:280,2,70,0|2|0
48,280,129723,1,0
48,208,129905,1,0
48,136,130086,1,0
8,80,130268,2,0,B|32:64|72:56|120:80|120:160,1,140,4|0
112,264,130996,6,0,B|120:320|64:344,2,70
112,192,131541,2,0,B|168:136|168:136|224:192|224:192|224:304|312:304|312:168,1,350,6|2
312,128,132632,1,0
312,56,132814,1,0
312,56,132996,1,0
384,56,133177,2,0,B|432:112|432:112|384:168,1,140,2|0
336,216,133723,2,0,B|280:272,1,70
240,216,134086,2,0,B|184:272,1,70
144,216,134450,2,0,B|88:272,1,70,2|0
48,320,134814,2,0,B|56:360|104:368,2,70
48,32,135541,5,0
48,104,135723,1,0
120,104,135905,1,0
120,32,136086,1,0
120,216,136450,1,0
272,216,136814,5,0
344,216,136996,2,0,B|344:296,1,70
416,144,137541,1,0
416,144,137723,1,0
488,144,137905,2,0,B|472:56|384:56|352:80|344:144|344:144|288:144|288:144|304:80|304:80|216:144|216:144|168:144|168:144|192:64,1,560,4|4
48,320,140450,5,0
88,264,140632,1,0
128,320,140814,1,0
128,320,140996,1,0
168,264,141177,6,0,B|168:192|168:192|240:192,1,140,6|0
236,192,141905,2,0,B|236:120|236:120|164:120,1,140,6|0
169,120,142632,2,0,B|136:72|72:72|48:128,1,140,4|0
24,56,143177,1,0
112,160,143541,1,2
56,120,143905,2,2,B|24:200|88:248|128:232|168:224|208:184|160:120|160:120|256:120,1,350,2|0
304,120,144996,5,0
376,120,145177,1,0
304,120,145359,1,0
304,120,145541,1,2
448,120,145905,1,0
448,192,146086,2,0,B|448:344,1,140,6|0
376,336,146632,1,0
304,336,146814,2,2,B|312:264|384:264|384:264|336:224|264:232|216:272|208:344,1,350,6|2
136,336,147905,1,0
64,336,148086,1,0
64,264,148268,1,0
64,192,148450,1,4
64,48,148814,1,0
64,120,148996,1,4
288,120,149359,5,0
288,312,149723,1,0
352,336,149905,2,0,B|352:288|352:288|318:249|318:249|264:249,1,140,6|0
208,248,150450,2,0,B|136:248,2,70,4|0|0
138,248,150996,1,0
88,200,151177,1,0
136,152,151359,1,0
88,104,151541,1,0
136,56,151723,1,2
184,104,151905,1,0
232,152,152086,2,0,B|288:208,2,70,2|0|2
416,352,152814,6,0,B|488:352|488:352|488:280,1,140,6|0
392,184,153541,2,0,B|320:184|320:184|320:256,1,140,6|0
96,256,154268,1,0
96,64,154632,1,0
168,64,154814,1,0
392,64,155177,1,0
392,64,155541,2,2,B|457:129|457:129|393:129|393:129|393:193|393:193|337:137|337:137|273:137,1,350,6|2
216,136,156632,6,0,B|184:112|144:136,1,70
96,176,156996,1,0
96,248,157177,1,6
368,248,157541,1,0
368,176,157723,1,6
368,32,158086,1,2
304,160,158450,2,2,B|304:88|304:88|360:88|360:88|464:88|464:264,1,350,2|6
464,328,159541,5,0
392,328,159723,1,0
392,256,159905,1,2
320,256,160086,2,0,B|320:328|320:328|248:328,1,140,6|0
248,256,160632,1,2
248,32,160996,2,0,B|320:32,2,70
176,32,161541,2,0,B|32:32,1,140,4|0
36,32,162086,2,0,B|36:184,1,140,4|0
312,176,162814,1,4
360,224,162996,2,0,B|416:280,2,70
312,176,163541,1,0
360,128,163723,2,0,B|416:72,2,70,4|0|0
