osu file format v6

[General]
AudioFilename: niconicochorus.mp3
AudioLeadIn: 0
PreviewTime: 68450
Countdown: 1
SampleSet: Normal
StackLeniency: 0.5
Mode: 0
LetterboxInBreaks: 1
SkinPreference:Default

[Editor]
DistanceSpacing: 1
BeatDivisor: 4
GridSize: 8

[Metadata]
Title:Meltdown
Artist:NicoNico Chorus/ Kagamine Rin
Creator:SeymourLyon
Version:Core
Source:iroha (sasaki)
Tags:Roshin Yuukai Melt down Nico Vocaloid Itsuu Itsuu-P Derekku Chan Zatoichi

[Difficulty]
HPDrainRate:6
CircleSize:5
OverallDifficulty:6
SliderMultiplier:1.3
SliderTickRate:1

[Events]
//Background and Video events
Video,0,"meltdown.avi"
0,0,"meltdown.jpg"
//Break Periods
2,164286,185946
//Storyboard Layer 0 (Background)
//Storyboard Layer 1 (Fail)
//Storyboard Layer 2 (Pass)
//Storyboard Layer 3 (Foreground)
//Storyboard Sound Samples
//Background Colour Transformations
3,100,163,162,255

[TimingPoints]
7360,363.636363636364,4,1,0,80,1,0
66041,-200,4,1,0,80,0,0
68404,-100,4,1,0,80,0,0
92404,-100,4,2,0,90,0,0
103677,-100,4,1,0,80,0,0
138041,-200,4,1,0,80,0,0
140404,-100,4,1,0,80,0,0

[Colours]
Combo1 : 218,237,203
Combo2 : 251,231,117
Combo3 : 233,233,233
Combo4 : 64,64,64
Combo5 : 27,83,92

[HitObjects]
32,160,8814,1,0
32,32,9178,1,0
96,32,9359,1,8
96,96,9541,1,8
96,160,9723,2,0,B|176:160,3,65,0|4|0|0
224,160,10450,1,0
224,96,10632,1,0
160,96,10814,2,0,B|160:16,1,65
96,32,11178,2,0,B|176:32,1,65,0|2
224,32,11541,1,0
288,32,11723,5,0
288,96,11905,2,0,B|288:176,1,65
352,160,12269,2,0,B|352:80,1,65,8|8
352,32,12632,1,0
416,32,12814,2,0,B|496:32,2,65,4|0|0
416,96,13359,1,0
416,160,13541,2,0,B|496:160,2,65
416,96,14087,1,0
480,96,14269,1,2
480,224,14632,6,0,B|336:224,1,130
288,224,15178,1,8
288,288,15359,2,0,B|432:288,1,130,8|4
480,288,15905,1,0
480,352,16087,2,0,B|400:352,4,65
352,352,17178,1,2
224,352,17541,5,0
160,352,17723,1,0
96,352,17905,1,0
32,352,18087,1,8
32,288,18269,2,0,B|112:288,1,65,8|0
160,288,18632,1,4
224,288,18814,1,0
224,224,18996,2,0,B|144:224,1,65
96,224,19359,2,0,B|16:224,1,65,2|0
32,160,19723,5,0
192,64,20087,1,0
256,240,20450,1,0
256,240,20632,2,0,B|256:32,1,195,0|2
320,64,21359,5,0
480,160,21723,1,0
352,304,22087,1,0
160,304,22450,1,0
256,304,22632,2,0,B|256:160,2,130,0|4|0
256,376,23541,5,0
128,224,23905,1,0
168,136,24087,1,2
208,48,24269,1,0
256,240,24632,1,0
304,48,24996,1,0
384,224,25360,1,0
384,128,25541,2,0,B|256:176|128:128,1,260
129,128,26450,5,0
336,192,26814,1,0
432,192,26996,1,2
480,288,27178,2,0,B|272:288,1,195
256,224,27905,1,0
256,128,28087,1,0
256,224,28269,1,0
224,288,28450,1,0
32,288,28814,1,4
208,192,29178,5,0
304,192,29360,1,0
256,208,29723,12,0,31360
480,160,31905,5,0
480,160,32087,2,0,B|416:136|352:160,1,130
288,160,32632,1,0
288,160,32814,2,0,B|264:224|288:288,1,130
288,352,33360,1,0
288,352,33541,2,0,B|318:258|224:288,1,130
160,288,34087,1,0
160,288,34269,2,0,B|66:318|96:224,1,130
32,160,34814,5,0
32,160,34996,2,0,B|96:136|160:160,1,130
224,160,35541,1,0
224,160,35723,2,0,B|248:224|224:288,2,130
208,96,36632,1,0
192,32,36814,1,0
208,96,36996,1,0
224,160,37178,1,0
240,224,37359,1,0
256,288,37541,1,0
304,240,37723,5,0
352,192,37905,2,0,B|320:176|320:176|320:144,1,65
256,48,38269,1,8
304,96,38450,1,0
352,128,38632,2,0,B|384:144|384:144|384:176,1,65,0|0
384,288,38996,1,8
352,352,39178,1,0
288,352,39359,2,0,B|208:352,1,65
224,288,39723,2,0,B|304:288,1,65
288,224,40087,1,8
224,224,40269,1,0
224,160,40450,1,2
288,160,40632,5,0
288,224,40814,1,0
352,192,40996,1,0
352,128,41178,2,0,B|256:92|160:128,3,195
160,192,42996,1,0
128,256,43178,5,0
192,288,43359,1,0
224,224,43541,1,0
224,160,43723,2,0,B|224:16,1,130
288,32,44269,1,0
288,96,44450,2,0,B|288:240,1,130
320,288,44996,1,0
384,256,45178,1,0
384,192,45359,1,2
384,128,45541,1,0
384,192,45723,1,2
384,128,45905,5,0
384,192,46087,1,2
384,256,46269,1,2
384,320,46450,1,0
320,320,46632,2,0,B|256:288|192:320,2,130,0|4|0
320,256,47541,1,0
320,192,47723,1,8
320,128,47905,1,8
320,64,48087,2,0,B|256:96|192:64,3,130,0|4|4|4
192,128,49359,5,0
192,192,49541,1,0
320,192,49905,1,0
320,256,50087,1,0
256,288,50269,1,0
256,224,50450,1,0
256,160,50632,1,0
256,96,50814,2,0,B|256:304,2,195
256,32,52087,6,0,B|336:32,1,65
384,32,52450,1,0
352,96,52632,2,0,B|272:96,1,65
224,96,52996,1,0
192,160,53178,2,0,B|272:160,2,65
224,224,53723,1,0
352,192,54087,2,0,B|352:336,1,130
224,288,54814,5,0
192,352,54996,1,0
160,288,55178,1,0
128,352,55359,2,0,B|32:352|32:288,1,130
96,288,55905,1,0
64,224,56087,1,0
128,224,56269,1,0
192,224,56450,1,0
256,224,56632,2,0,B|256:304,3,65
256,352,57359,1,0
256,224,57723,5,0
224,160,57905,1,0
288,160,58087,1,0
256,224,58269,1,0
256,96,58632,1,0
160,192,58996,2,0,B|160:272,2,65
224,224,59541,1,0
352,192,59905,2,0,B|352:272,2,65
288,224,60450,5,0
288,288,60632,1,0
320,352,60814,1,0
352,288,60996,1,0
384,352,61178,2,0,B|480:352|480:288,1,130
416,288,61723,1,0
448,224,61905,1,0
384,224,62087,1,0
320,224,62269,1,0
256,224,62450,2,0,B|256:304,3,65
256,352,63178,1,0
256,224,63541,5,0
224,160,63723,1,0
288,160,63905,1,0
256,224,64087,1,0
256,96,64450,1,0
160,192,64814,2,0,B|160:272,2,65
224,224,65359,1,0
352,192,65723,2,0,B|352:272,1,64.9999999999999
288,224,66087,2,0,B|304:192|304:160|288:128|256:27|224:128|208:160|208:192|224:224,1,260
224,224,68450,6,0,B|208:192|208:160|224:128|256:27|288:128|304:160|304:192|288:224,1,260
192,320,69541,1,0
320,320,69905,1,0
192,256,70269,2,0,B|336:256,1,130
256,160,70996,1,0
256,160,71178,1,0
256,288,71541,1,0
352,192,71905,2,0,B|144:192,2,195
416,192,73178,5,0
400,128,73359,1,0
384,64,73541,2,0,B|176:64,1,195
128,64,74269,2,0,B|112:128,1,65
96,192,74632,2,0,B|176:192,1,65
192,128,74996,2,0,B|272:128,1,65
320,128,75359,1,0
256,128,75541,1,0
192,128,75723,1,0
256,208,75905,12,0,76996
128,160,77359,5,0
256,160,77723,1,0
320,160,77905,1,0
384,160,78087,1,0
352,216,78269,1,0
320,344,78633,1,0
192,344,78997,1,0
160,216,79360,1,0
176,280,79541,1,0
224,232,79723,1,0
288,232,79905,1,0
336,280,80087,1,0
256,280,80269,1,0
256,248,80359,1,0
256,216,80450,1,0
256,152,80632,1,0
192,192,80814,5,0
320,320,81178,1,0
192,320,81541,1,0
320,256,81905,2,0,B|176:256,1,130
256,160,82632,1,0
256,160,82814,1,0
256,288,83178,1,0
160,192,83541,2,0,B|368:192,2,195
96,192,84814,6,0,B|16:192,1,65
64,128,85178,2,0,B|144:128,1,65
160,64,85541,1,0
192,128,85723,1,0
320,128,86087,1,0
352,64,86269,1,0
384,128,86450,2,0,B|464:128,1,65
480,192,86814,2,0,B|400:192,3,65
352,192,87541,6,0,B|336:256,1,65
320,320,87905,1,0
256,352,88087,1,0
192,320,88269,1,0
175,255,88450,2,0,B|160:192,2,65
224,288,88996,5,0
288,288,89178,2,2,B|288:208,1,65,2|0
352,192,89541,1,0
288,160,89723,2,2,B|272:96,1,65,2|0
288,32,90087,2,2,B|208:32,1,65,2|0
240,96,90450,2,2,B|224:160,1,65,2|0
160,192,90814,1,0
224,224,90996,2,2,B|304:224,1,65,2|2
288,288,91359,2,2,B|208:288,1,65,2|0
192,352,91723,1,2
256,352,91905,1,2
320,352,92087,1,2
256,240,92450,5,14
384,240,92814,2,0,B|466:192|384:144,1,130,2|0
256,144,93541,1,8
128,144,93905,2,0,B|46:192|128:240,2,130,2|0|2
256,144,94996,1,2
304,192,95178,1,0
256,240,95359,5,8
128,192,95723,1,2
256,192,96087,1,8
256,64,96450,2,0,B|304:112,1,65,2|0
352,160,96814,2,0,B|352:240,1,65,0|8
304,272,97178,2,0,B|256:320,1,65,8|0
232,256,97541,1,8
208,192,97723,5,2
256,144,97905,1,2
312,192,98087,1,2
384,192,98269,1,2
280,256,98632,1,8
256,64,98996,2,0,B|208:112,1,65
160,160,99359,2,0,B|160:240,1,65
208,272,99723,2,0,B|256:320,3,65,0|0|8|0
256,384,100450,1,8
432,192,101178,5,2
336,112,101541,1,0
256,0,101905,1,2
176,112,102269,1,0
80,192,102632,1,2
192,224,102814,5,8
320,224,102996,5,0
432,192,103178,5,8
256,384,103541,6,4,B|256:336,2,32.5,4|10|12
320,352,103905,5,0
320,288,104087,2,0,C|176:288,1,130
192,352,104632,1,0
192,288,104814,2,0,C|192:144,1,130
256,160,105359,1,0
320,160,105541,2,0,C|320:304,1,130
256,288,106087,1,0
320,288,106269,6,0,B|336:240|256:207|176:240|192:288,2,195
288,352,107541,1,0
224,352,107723,1,0
256,288,107905,1,0
224,224,108087,2,0,B|304:224,1,65
352,192,108450,2,0,B|352:112,1,65
288,128,108814,2,0,B|288:208,1,65
224,192,109178,1,0
224,128,109359,1,0
160,128,109541,1,0
160,192,109723,5,0
160,256,109905,2,0,B|304:256,2,130
224,192,110814,2,0,B|304:192,1,65
352,192,111178,1,0
352,256,111359,2,0,B|208:256,2,130
288,192,112269,5,0
304,96,112450,1,0
208,96,112632,1,0
224,192,112814,1,0
256,208,112996,12,0,114814
256,192,114996,5,0
288,128,115178,1,0
320,192,115359,1,0
288,256,115541,1,0
224,256,115723,1,0
192,192,115905,1,0
224,128,116087,1,0
256,192,116269,1,0
288,256,116450,2,0,B|320:192,1,65
288,128,116814,2,0,B|208:128,1,65
192,192,117178,2,0,B|224:256,1,65
256,192,117541,2,0,B|256:336,1,130
320,320,118087,5,0
368,272,118269,1,0
416,224,118450,1,0
352,208,118632,2,0,B|288:192,1,65
224,192,118996,2,0,B|160:208,1,65
96,224,119359,2,0,B|144:272,1,65
192,320,119723,1,0
256,288,119905,1,0
288,232,120087,2,0,B|328:264|328:312|288:344,1,130
256,288,120632,1,0
224,344,120814,2,0,B|184:312|184:264|224:232,1,130
176,192,121359,5,0
224,144,121541,1,0
96,192,121905,1,0
48,144,122087,1,0
104,112,122269,1,0
168,112,122450,1,0
136,56,122632,1,0
192,32,122814,1,0
320,32,123178,1,0
352,160,123541,2,0,B|144:160,1,195
192,224,124269,5,0
256,224,124450,1,4
256,352,124814,2,0,B|256:208,1,130
256,160,125359,1,0
256,96,125541,1,0
320,128,125723,2,0,B|304:208|304:208|256:217|256:217|208:208|208:208|192:128,1,260
320,64,126814,5,0
384,64,126996,1,0
448,64,127178,1,0
448,128,127359,1,0
448,256,127723,1,0
448,320,127905,1,0
384,320,128087,1,0
320,320,128269,1,0
320,256,128450,2,0,B|320:50|384:50|384:259,1,325
256,256,129723,5,0
288,192,129905,2,0,B|336:144,1,65
332,144,130269,2,0,B|284:96,1,65,0|0
256,160,130632,1,0
368,80,130996,1,0
312,40,131178,1,0
256,0,131359,1,0
288,64,131541,2,0,B|384:74|366:161,1,130
336,200,132087,2,0,B|288:176|312:128,1,65
256,96,132450,5,0
192,64,132632,1,0
128,64,132814,1,0
64,64,132996,1,0
64,128,133178,1,0
64,256,133541,1,0
64,320,133723,1,0
128,320,133905,1,0
192,320,134087,1,0
192,256,134269,2,0,B|192:50|128:50|128:259,1,325
256,256,135541,5,0
224,192,135723,2,0,B|176:144,1,65
176,144,136087,2,0,B|224:96,1,65
256,160,136450,1,0
144,80,136814,1,0
200,40,136996,1,0
256,0,137178,1,0
224,64,137359,2,0,B|128:74|146:161,1,130
176,200,137905,1,0
208,144,138087,2,0,B|240:144|176:240|224:320|256:153|288:320|336:240|272:144|304:144,1,260
304,144,140450,6,0,B|272:144|336:240|288:320|256:153|224:320|176:240|240:144|208:144,1,260
320,64,141541,1,0
192,64,141905,1,0
304,144,142269,2,0,B|272:112|256:73|240:112|208:144,1,130
256,256,142996,1,0
256,192,143178,1,0
384,256,143541,1,0
400,128,143905,2,0,B|320:128|320:160|320:224|320:256|320:273,2,195
416,192,145178,5,0
400,128,145359,1,0
384,64,145541,2,0,B|176:64,1,195
128,64,146269,2,0,B|112:128,1,65
96,192,146632,2,0,B|176:192,1,65
192,128,146996,2,0,B|272:128,1,65
320,128,147359,1,0
256,128,147541,1,0
192,128,147723,1,0
256,208,147905,12,0,148996
128,160,149359,5,0
256,160,149723,1,0
320,160,149905,1,0
384,160,150087,1,0
352,216,150269,1,0
320,344,150633,1,0
192,344,150997,1,0
160,216,151360,1,0
176,280,151541,1,0
224,232,151723,1,0
288,232,151905,1,0
336,280,152087,1,0
256,280,152269,1,0
256,248,152359,1,0
256,216,152450,1,0
256,152,152632,1,0
304,112,152814,5,0
192,32,153178,1,0
320,32,153541,1,0
208,112,153905,2,0,B|240:80|256:41|272:80|304:112,1,130
256,224,154632,1,0
256,160,154814,1,0
128,224,155178,1,0
112,96,155541,2,0,B|192:96|192:128|192:192|192:224|192:241,2,195
112,160,156814,6,0,B|128:224,1,65
144,288,157178,2,0,B|208:304,1,65
256,256,157541,2,0,B|256:336,1,65
304,304,157905,2,0,B|368:288,1,65
384,224,158269,1,0
400,160,158450,1,0
400,96,158632,1,0
288,160,158996,2,0,B|208:160,3,65
160,160,159723,5,0
192,96,159905,1,0
256,96,160087,1,0
256,224,160450,1,0
320,224,160632,1,0
352,160,160814,1,0
288,160,160996,5,0
224,160,161178,1,0
160,160,161359,1,0
192,224,161541,1,0
288,320,161905,1,0
224,320,162087,1,0
160,288,162269,1,0
224,256,162450,1,0
288,256,162632,1,0
352,288,162814,1,0
416,256,162996,2,0,B|400:160|336:224|272:96|256:279|240:96|176:224|112:160|96:256,1,390
480,32,186996,5,0
480,160,187360,1,0
384,96,187723,1,0
288,160,188087,1,0
288,32,188450,1,0
192,96,188814,1,0
128,96,188996,1,0
64,96,189178,1,0
128,96,189359,1,0
192,96,189541,1,0
96,192,189905,5,0
160,192,190087,1,0
128,256,190269,1,0
128,256,190450,1,0
160,320,190632,1,0
96,320,190814,1,0
256,192,191359,5,0
256,320,191723,1,0
256,256,191905,1,0
320,256,192087,1,0
320,192,192269,1,0
384,224,192450,1,0
384,288,192632,1,0
320,320,192814,1,0
384,352,192996,1,0
448,352,193178,1,0
448,288,193359,1,0
448,224,193541,5,0
320,224,193905,1,0
192,224,194269,1,0
64,224,194632,1,0
128,112,194996,1,0
256,112,195359,1,0
384,112,195723,1,0
256,160,196087,1,0
256,288,196450,1,0
256,32,197178,5,0
320,64,197359,1,0
352,128,197541,1,0
320,192,197723,1,0
256,224,197905,1,0
192,192,198087,1,0
160,128,198269,1,0
192,64,198450,1,0
256,32,198632,1,0
256,96,198814,1,0
256,160,198996,5,0
256,224,199178,1,0
256,288,199359,1,0
352,192,199723,1,0
288,192,199905,1,0
224,192,200087,1,0
160,192,200269,1,0
240,288,200632,5,0
240,224,200814,1,0
272,160,200996,1,0
272,96,201178,1,0
272,224,201541,1,0
272,288,201723,1,0
272,224,201905,1,0
240,160,202087,1,0
240,96,202269,1,0
176,96,202450,1,0
176,160,202632,1,0
176,288,202996,5,0
256,192,203359,1,0
336,288,203723,1,0
336,160,204087,1,0
256,64,204450,1,0
256,192,204814,1,0
336,288,205178,5,0
272,304,205359,1,0
320,352,205541,1,0
192,352,205905,1,0
240,304,206087,1,0
176,288,206269,1,0
288,240,206632,1,0
224,240,206814,1,0
256,176,206996,1,0
320,160,207178,1,0
288,96,207359,1,0
224,96,207541,5,0
192,160,207723,1,0
160,224,207905,1,0
192,288,208087,1,0
224,352,208269,1,0
256,224,208632,1,0
288,352,208996,1,0
320,288,209178,1,0
352,224,209359,1,0
320,160,209541,1,0
288,112,209723,1,0
256,160,209905,1,0
256,288,210269,1,0
512,176,210996,6,0,B|384:224|256:176,4,260
256,80,214632,1,0
352,176,214996,1,0
256,272,215359,1,0
448,80,216087,1,0
160,176,216814,5,0
256,80,217178,1,0
352,176,217541,1,0
160,368,218269,1,0
256,272,218632,1,0
352,368,218996,1,0
160,176,219723,1,0
64,80,220087,1,0
160,176,220450,5,0
256,272,220814,1,0
352,176,221178,1,0
256,80,221541,1,2
256,208,221905,1,2
256,144,222087,1,2
256,208,222269,1,2
0,176,222632,6,0,B|128:224|256:176,4,260
256,80,226269,1,0
160,176,226632,1,0
256,272,226996,1,0
64,80,227723,1,0
352,176,228450,5,0
256,80,228814,1,0
160,176,229178,1,0
352,368,229905,1,0
256,272,230269,1,0
160,368,230632,1,0
352,176,231359,1,0
448,80,231723,1,0
352,176,232087,5,0
256,272,232450,1,0
160,176,232814,1,0
256,80,233178,1,2
256,208,233541,1,2
256,144,233723,1,2
256,208,233905,1,2
256,16,234269,1,4
