osu file format v7

[General]
AudioFilename: 111.mp3
AudioLeadIn: 0
PreviewTime: -1
Countdown: 0
SampleSet: Normal
StackLeniency: 0.7
Mode: 0
LetterboxInBreaks: 1

[Editor]
Bookmarks: 17295,63486,30533
DistanceSpacing: 0.600000023841858
BeatDivisor: 4
GridSize: 8

[Metadata]
Title:Megu Megu Fire Endless Night
Artist:NicoNico Chorus
Creator:maxzjs
Version:testing..dont mod
Source:
Tags:

[Difficulty]
HPDrainRate:8
CircleSize:5
OverallDifficulty:8
SliderMultiplier:2
SliderTickRate:1

[Events]
//Background and Video events
0,0,"1231231.jpg"
//Break Periods
//Storyboard Layer 0 (Background)
//Storyboard Layer 1 (Fail)
//Storyboard Layer 2 (Pass)
//Storyboard Layer 3 (Foreground)
//Storyboard Sound Samples
//Background Colour Transformations
3,100,163,162,255

[TimingPoints]
2325,370.37037037037,4,1,0,100,1,0
53806,-50,4,1,0,100,0,0

[Colours]
Combo1 : 128,0,0
Combo2 : 5,240,5
Combo3 : 5,5,240
Combo4 : 240,5,5
Combo5 : 255,150,0

[HitObjects]
56,184,2325,1,0
56,184,2510,1,0
136,184,2695,1,0
136,184,2880,1,0
216,184,3065,1,0
216,184,3250,1,0
296,184,3436,1,0
296,184,3621,1,0
376,184,3806,6,0,B|472:248,1,100,0|0
264,336,4176,2,0,B|232:200,1,100
120,104,4547,2,0,B|240:32,1,100
288,96,4917,2,0,B|368:192,1,100
448,304,5287,5,0
400,264,5473,1,0
360,304,5658,1,0
312,264,5843,1,0
272,304,6028,1,0
224,264,6213,1,0
184,304,6399,1,0
144,256,6584,1,0
64,160,6769,6,0,B|88:104|192:136,1,100
232,208,7139,2,0,B|312:208|304:112,1,100
296,40,7510,2,0,B|352:40|400:120,1,100
432,256,7880,2,0,B|360:288|328:192,1,100
88,48,8250,5,0
88,48,8436,1,0
168,48,8621,1,0
168,48,8806,1,0
240,48,8991,1,0
240,48,9176,1,0
312,48,9362,1,0
312,48,9547,1,0
432,48,9732,6,0,B|400:128|392:104|480:144,2,100
376,232,10287,2,0,B|320:240|376:160|280:160,2,100
176,344,10843,6,0,B|88:320|208:256,1,100
216,248,11213,2,0,B|208:200|104:192,1,100
8,56,11584,2,0,B|24:152|96:144,1,100
144,80,11954,2,0,B|176:56|280:112,1,100
328,120,12324,2,0,B|320:160|296:136|288:168|320:184|344:176|360:160,1,100
160,192,12695,5,8
160,192,12787,1,8
160,192,12880,1,8
256,192,13065,5,8
256,192,13158,1,8
256,192,13250,1,8
352,192,13436,5,8
352,192,13528,1,8
352,192,13621,1,8
432,64,14176,5,0
432,64,14269,1,0
432,64,14362,1,0
432,128,14547,5,0
432,192,14732,1,0
384,224,14917,1,0
320,224,15102,1,0
208,224,15473,5,0
144,272,15843,5,0
120,256,15936,1,0
104,240,16028,1,0
88,216,16121,1,0
72,192,16213,1,0
56,168,16306,1,0
64,144,16399,1,0
80,120,16491,1,0
104,112,16584,1,0
128,104,16676,1,0
152,96,16769,1,4
256,192,17232,12,0,21399
80,64,21584,5,0
96,64,21676,1,0
112,64,21769,1,0
176,64,21954,1,4
80,144,22139,5,0
96,144,22232,1,0
112,144,22324,1,0
176,144,22510,1,4
432,224,23065,5,0
416,224,23158,1,0
400,224,23250,1,0
336,224,23436,1,4
432,304,23621,5,0
416,304,23713,1,0
400,304,23806,1,0
336,304,23991,1,4
160,32,24547,5,0
160,48,24639,1,0
160,64,24732,1,0
160,128,24917,1,4
256,32,25102,5,0
256,48,25195,1,0
256,64,25287,1,0
256,128,25473,1,4
416,352,26028,5,0
416,336,26121,1,0
416,320,26213,1,0
416,256,26399,1,4
336,352,26584,5,0
336,336,26676,1,0
336,320,26769,1,0
336,256,26954,1,4
224,192,27510,5,0
256,192,27602,1,0
288,192,27695,1,0
368,192,27880,5,0
480,176,28065,5,0
464,200,28158,1,0
448,224,28250,1,0
432,248,28343,1,0
416,272,28436,1,0
392,288,28528,1,0
368,296,28621,1,0
344,296,28713,1,0
312,296,28806,1,0
280,296,28899,1,0
88,72,29176,5,0
160,192,29362,1,0
232,72,29547,1,0
304,192,29732,1,0
376,72,29917,1,0
456,152,30287,5,0
456,192,30380,1,0
456,224,30473,1,0
416,288,30843,1,0
352,288,31028,1,0
288,288,31213,1,0
224,288,31399,1,0
160,288,31584,1,0
128,96,32139,5,0
168,120,32324,1,0
128,144,32510,1,0
168,168,32695,2,0,B|272:168,6,100
128,200,33991,5,0
168,200,34084,1,0
192,224,34176,1,0
216,240,34269,1,0
248,248,34362,1,0
280,248,34454,1,0
312,240,34547,1,0
336,216,34639,1,0
256,24,35102,5,0
288,88,35287,1,0
224,88,35473,1,0
320,144,35658,1,0
192,144,35843,1,0
248,200,36213,5,0
304,232,36584,5,0
328,232,36676,1,0
352,232,36769,1,0
400,232,36954,5,0
456,200,37139,1,0
464,136,37324,1,0
424,88,37510,1,0
360,72,37695,1,0
304,96,37880,1,0
256,136,38065,1,0
208,176,38250,5,0
176,184,38343,1,0
192,208,38436,1,0
192,240,38528,1,0
184,272,38621,1,0
160,296,38713,1,0
128,288,38806,1,0
104,272,38899,1,0
88,248,38991,1,0
80,216,39084,1,0
72,184,39176,1,0
72,152,39269,1,0
256,88,40102,5,0
256,88,40195,1,0
256,88,40287,1,0
256,88,40380,1,0
256,88,40473,1,0
256,88,40565,1,0
256,88,40658,1,0
256,152,40843,5,0
328,256,41213,1,0
440,200,41584,1,0
440,72,41954,1,0
392,112,42139,1,0
344,152,42324,1,0
320,168,42417,1,0
288,184,42510,1,0
224,176,42695,1,0
200,160,42787,1,0
184,136,42880,1,0
232,96,43065,1,0
264,88,43158,1,0
296,80,43250,1,0
336,128,43436,1,0
352,160,43528,1,0
368,184,43621,1,0
400,288,43806,6,0,B|320:328|320:256,1,100
232,296,44176,2,0,B|144:272|240:248,1,100
120,200,44547,2,0,B|64:136|160:160,1,100
184,88,44917,2,0,B|272:32|240:112,1,100
328,128,45287,2,0,B|352:112|368:144|416:120|400:192|456:128,1,100
448,224,45658,2,0,B|400:288|336:200,1,100
272,224,46028,5,0
176,192,46213,1,0
96,160,46399,1,0
96,80,46584,1,0
168,88,46769,2,0,B|216:-8|304:96|280:24|336:16|368:40|392:48|424:32|464:16|568:48|392:112|320:168|496:200|520:272|176:240,1,700
80,48,48991,5,0
208,48,49362,1,0
344,48,49732,1,0
392,112,50102,2,0,B|368:184|376:184|296:184,1,100
208,184,50473,2,0,B|240:168|208:288|296:264,1,100
200,312,50843,2,0,B|232:328|144:400|136:352,1,100
96,280,51213,2,0,B|120:320|128:176,1,100
56,160,51584,2,0,B|-16:128|112:80,1,100
256,192,52695,12,0,53806
512,208,54176,6,0,B|360:280|264:184|248:216,1,200
352,152,54547,2,0,B|256:136|136:184,1,200
80,280,54917,2,0,B|8:192|88:80,1,200
216,72,55473,1,0
304,80,55843,2,0,B|416:80,4,100
