osu file format v7

[General]
AudioFilename: 111.mp3
AudioLeadIn: 0
PreviewTime: 48718
Countdown: 0
SampleSet: Soft
StackLeniency: 0.7
Mode: 0
LetterboxInBreaks: 1

[Editor]
Bookmarks: 17295,63486
DistanceSpacing: 1
BeatDivisor: 4
GridSize: 16

[Metadata]
Title:Megu Megu Fire Endless Night
Artist:NicoNico Chorus
Creator:maxzjs
Version:FIRE!!
Source:
Tags:

[Difficulty]
HPDrainRate:0
CircleSize:3
OverallDifficulty:3
SliderMultiplier:1.4
SliderTickRate:4

[Events]
//Background and Video events
0,0,"1231231.jpg"
//Break Periods
2,16784,27736
2,78079,88477
//Storyboard Layer 0 (Background)
//Storyboard Layer 1 (Fail)
//Storyboard Layer 2 (Pass)
//Storyboard Layer 3 (Foreground)
//Storyboard Sound Samples
//Background Colour Transformations
3,100,163,162,255

[TimingPoints]
2325,370.37037037037,4,2,0,100,1,0
40102,-100,4,1,1,100,0,0
40658,-100,4,1,1,100,0,0
41213,-100,4,1,1,100,0,0
43814,-100,4,2,2,100,0,0
46769,-200,4,2,0,100,0,0
48250,-100,4,2,0,100,0,0
62695,-100,4,1,1,100,0,0
66028,-100,4,2,2,100,0,0
77510,-200,4,2,0,100,0,0
100843,-100,4,1,1,100,0,0
104547,-100,4,2,2,100,0,0
107510,-200,4,2,0,100,0,0
108991,-100,4,2,0,100,0,0
126769,-200,4,2,0,100,0,0
128250,-100,4,2,0,100,0,0
129732,-200,4,2,0,100,0,0
131213,-100,4,2,0,100,0,0

[Colours]
Combo1 : 128,0,0
Combo2 : 5,240,5
Combo3 : 5,5,240
Combo4 : 240,5,5
Combo5 : 255,150,0

[HitObjects]
432,64,14176,6,0,C|400:48|352:64,1,70
320,112,14547,2,0,C|288:128|240:112,1,70,0|0
208,64,14917,2,0,C|176:48|128:64,1,70
112,192,15473,2,0,C|176:224|256:192,1,140
256,192,16028,12,0,16584
64,64,29176,5,0
64,64,29361,1,0
64,144,29546,1,0
64,144,29732,1,0
64,224,29917,1,0
112,304,30287,2,0,B|208:352|256:320,3,140
368,240,32139,6,0,B|368:320|368:320,1,70
368,240,32509,2,0,C|432:198,1,70
368,240,32880,2,0,B|360:246|312:198,1,70
368,128,33250,1,0
288,64,33621,1,0
208,64,33806,1,0
128,64,33991,1,0
128,144,34176,1,0
48,224,34547,1,0
96,320,35102,2,0,C|176:320,1,70,0|0
192,240,35473,1,0
256,192,35658,1,0
256,192,35843,1,0
256,64,36213,5,0
416,192,36584,1,0
256,320,36954,1,0
112,192,37324,1,0
256,192,37695,12,0,39176
32,64,40102,6,8,C|16:128|80:160,1,140
144,160,40658,1,0
208,160,40843,1,0
336,96,41213,2,8,C|400:80|432:144,1,140
304,176,41954,1,0
272,240,42139,2,8,C|288:304|224:336,1,140,8|0
160,304,42695,1,0
176,64,43806,5,0
336,64,44176,1,0
256,160,44547,1,0
400,160,44917,1,0
400,240,45102,1,0
400,240,45473,2,0,B|320:240|320:240,1,70
160,320,46028,6,0,B|112:256,1,70
160,320,46399,2,0,B|224:240,1,70
160,192,46769,2,0,B|160:128|192:96|224:80|272:80|304:96|336:128|336:192,1,280
128,96,48992,5,0
256,176,49362,1,0
368,96,49732,1,0
368,288,50102,1,0
368,288,50287,1,0
272,288,50658,1,0
272,288,50843,1,0
272,288,51028,2,0,C|192:288,1,70
256,192,51399,12,0,52324
80,64,54176,5,0
144,64,54362,1,0
208,64,54547,1,0
208,128,54732,1,0
272,128,54917,1,2
336,128,55102,1,0
400,208,55473,6,0,B|352:272|272:208,1,140
224,256,56028,1,0
160,288,56213,1,0
96,256,56399,1,0
144,208,56584,1,0
208,176,56769,1,0
272,192,56954,1,0
256,192,57139,6,0,B|224:144|192:144|128:176,1,140
64,208,57695,2,0,B|16:112|96:64,1,140
352,288,58436,5,0
400,272,58622,1,0
448,240,58807,1,0
464,192,58992,1,0
432,144,59177,1,0
384,112,59362,2,0,B|336:80|320:128,1,70
324,117,59732,1,0
64,320,60102,5,0
64,320,60287,1,0
64,240,60472,1,0
64,240,60658,1,0
64,160,60843,1,0
64,160,61028,1,0
160,64,61399,6,0,B|192:96|224:64,1,70
224,144,61769,2,0,B|256:176|288:144,1,70
304,64,62139,2,0,B|336:96|368:64,1,70
512,64,62695,6,0,C|528:128|464:160,1,140
400,176,63250,1,0
272,128,63621,1,0
208,112,63806,2,0,C|144:96|112:160,1,140
32,272,64547,1,0
96,256,64732,2,0,C|80:320|144:352,1,140,0|0
208,320,65288,1,0
352,304,66028,5,0
144,304,66399,1,0
256,192,66769,1,0
192,128,67139,1,0
192,192,67324,1,0
256,192,67510,1,0
320,192,67695,1,0
320,256,67880,1,0
448,48,68250,6,0,B|448:80|448:112|432:112|416:112|400:112|384:112|368:64,1,140
288,80,68991,6,0,B|288:112|288:144|272:144|256:144|240:144|224:144|208:96,1,140
144,144,69732,6,0,B|144:176|144:208|128:208|112:208|96:208|80:208|64:160,1,140
112,320,70473,5,0
256,320,70843,1,0
400,320,71213,1,0
400,320,71399,1,0
336,64,71954,5,0
176,64,72324,1,0
256,160,72695,1,0
112,160,73065,1,0
112,240,73250,1,0
112,240,73621,2,0,B|192:240|192:240,1,70
320,240,74176,5,0
320,240,74547,1,0
256,192,74917,12,0,76028
448,48,76584,5,0
448,112,76769,1,0
448,112,76954,1,0
448,176,77139,1,0
448,240,77324,1,0
448,240,77509,2,0,B|464:304|416:336|352:304,1,140
256,48,89917,5,0
192,48,90102,1,0
128,48,90287,1,0
64,80,90473,2,0,B|32:112|64:144,1,70
128,192,91028,1,0
256,256,91398,1,0
384,192,91769,1,0
256,256,92139,1,0
256,48,92880,5,0
320,48,93065,1,0
384,48,93250,1,0
448,48,93436,2,0,B|480:80|448:112,1,70
416,272,94176,6,0,B|432:304|368:336,1,70
192,336,94917,1,0
48,336,95287,1,0
48,48,95843,5,0
48,48,96028,2,0,B|128:48,1,70
256,48,96584,1,0
400,48,96954,1,0
400,192,97324,1,0
400,336,97695,2,0,B|320:336,1,70
256,192,98436,12,0,100102
480,32,100843,6,0,C|496:96|432:128,1,140
384,176,101399,1,0
320,192,101584,1,0
192,144,101954,2,0,C|128:128|96:192,1,140
80,336,102695,1,0
144,288,102880,2,0,C|128:352|192:384,1,140,0|0
272,272,103436,1,0
336,64,104547,5,0
176,64,104917,1,0
256,160,105288,1,0
112,160,105658,1,0
112,240,105843,1,0
112,240,106214,2,0,B|192:240|192:240,1,70
288,240,106769,5,0
320,304,106954,1,0
384,304,107139,1,0
416,240,107324,1,0
352,208,107510,2,0,B|352:144|320:112|288:96|240:96|208:112|176:144|176:208,1,280
384,96,109732,5,0
256,176,110102,1,0
144,96,110472,1,0
144,288,110842,1,0
144,288,111027,1,0
240,288,111398,1,0
240,288,111583,1,0
240,288,111769,1,0
304,288,111954,2,4,B|368:288,14,35,0|0|0|0|0|0|0|0|0|0|0|0|0|0|0
48,48,114917,6,0,B|128:48,1,70
128,112,115287,2,0,B|208:112,1,70
208,176,115658,2,0,B|288:176,1,70
416,192,116213,1,0
336,272,116584,6,0,B|256:272,1,70
256,336,116954,2,0,B|176:336,1,70
80,80,117880,6,0,B|160:80,1,70
160,144,118251,1,0
160,144,118436,2,0,B|240:144,1,70
240,208,118807,1,0
256,192,118991,12,0,120473
448,48,120843,5,0
384,48,121029,1,0
320,48,121214,1,0
320,112,121399,1,0
256,112,121584,1,2
192,112,121769,1,0
128,192,122140,6,0,B|176:256|256:192,1,140
304,240,122695,1,0
368,272,122880,1,0
432,240,123066,1,0
80,256,123806,5,0
80,192,123991,1,0
80,176,124084,1,0
80,160,124177,1,0
160,144,124362,1,0
304,144,124732,1,0
256,192,125102,12,0,126213
48,48,126769,6,0,B|80:144|128:208|208:224|272:224,1,280
464,336,129732,2,0,B|432:240|384:176|304:160|240:160,1,280
176,64,132695,5,0
336,64,133065,1,0
176,176,133436,1,0
336,176,133806,1,0
336,240,133991,1,0
336,240,134362,2,0,B|256:240|256:240,1,70
128,240,134917,1,0
128,96,135287,1,0
256,192,135658,12,0,137139
160,112,137324,5,0
240,112,137509,1,0
256,192,137694,1,0
256,192,137879,1,0
256,192,138064,1,0
272,272,138250,1,0
352,272,138436,1,0
