osu file format v9

[General]
AudioFilename: Matryoshka (Chorus).mp3
AudioLeadIn: 0
PreviewTime: 103900
Countdown: 0
SampleSet: Normal
StackLeniency: 0.7
Mode: 0
LetterboxInBreaks: 1

[Editor]
DistanceSpacing: 0.9
BeatDivisor: 2
GridSize: 4

[Metadata]
Title:Matryoshka
Artist:NicoNico Chorus
Creator:Matoryoshika
Version:Normal
Source:Nico Nico Douga
Tags:nicovideo niconico douga vocaloid

[Difficulty]
HPDrainRate:5
CircleSize:3
OverallDifficulty:4
ApproachRate:4
SliderMultiplier:1.1
SliderTickRate:1

[Events]
//Background and Video events
Video,0,"Comp 2~2.avi"
0,0,"MatryoshkaBG.jpg"
//Break Periods
2,24929,26921
2,67079,74921
2,122689,131116
//Storyboard Layer 0 (Background)
//Storyboard Layer 1 (Fail)
//Storyboard Layer 2 (Pass)
//Storyboard Layer 3 (Foreground)
//Storyboard Sound Samples
//Background Colour Transformations
3,100,163,162,255

[TimingPoints]
1315,292.682926829268,4,2,0,50,1,0
4827,-100,4,1,0,50,0,0
5997,-100,4,2,2,50,0,0
15363,-100,4,1,0,50,0,0
38778,-100,4,2,2,50,0,0
48144,-100,4,1,0,50,0,1
55168,-133.333333333333,4,1,0,50,0,1
55461,-100,4,1,0,50,0,1
66875,-100,4,1,0,50,0,0
86778,-100,4,2,2,50,0,0
94973,-100,4,2,2,50,0,0
104339,-100,4,1,0,50,0,1
123071,-100,4,1,0,50,0,0
133607,-100,4,2,0,50,0,0
137119,-100,4,1,0,50,0,0
138290,-100,4,2,0,50,0,0
142095,-200,4,2,0,50,0,0
142973,-100,4,2,0,50,0,0
143266,-100,4,1,0,5,0,0
144144,-100,4,1,0,50,0,0
145607,-100,4,1,0,5,0,0
146485,-100,4,2,0,50,0,0
152632,-100,4,2,2,50,0,0
162875,-100,4,1,0,50,0,1
172241,-100,4,1,0,50,0,0

[Colours]
Combo1 : 0,128,255
Combo2 : 255,255,0
Combo3 : 39,134,26
Combo4 : 64,0,64
Combo5 : 255,128,64

[HitObjects]
176,192,4827,5,0
256,128,5120,1,0
336,192,5412,1,0
256,256,5705,1,0
200,336,5997,5,0
112,320,6290,2,0,B|112:256,1,55
64,256,6583,2,0,B|96:208,1,55
176,152,7022,1,0
272,128,7314,6,0,B|336:128,1,55
352,88,7607,2,0,B|400:120,1,55
352,208,8046,2,0,B|352:272,2,55
264,160,8632,2,0,B|200:160,1,55
184,200,8924,2,0,B|136:168,1,55
64,240,9363,6,0,B|0:288,1,55
64,240,9656,2,0,B|112:288,1,55
64,240,9949,2,0,B|128:192,1,55
288,112,10680,5,4
188,112,10973,2,0,B|188:176,1,55
136,176,11266,2,0,B|168:240,1,55
256,192,11705,6,0,B|320:192,1,55
320,144,11997,2,0,B|384:176,1,55
369,218,12290,2,0,B|433:186,1,55
488,120,12729,2,0,B|488:56,2,55
400,72,13314,6,0,B|336:72,1,55
296,96,13607,2,0,B|232:128,1,55
160,176,14046,1,0
224,248,14339,1,0
323,248,14632,2,0,B|323:184,1,55
128,168,15363,6,0,B|200:176|224:120|224:120|248:56|320:64,1,220
370,134,16534,2,0,B|409:187|370:246,1,110
305,307,17119,1,0
112,264,17705,6,0,B|72:208|72:168|72:104|120:48,1,220
195,109,18583,2,0,B|155:165|203:229,1,110
280,160,19168,2,0,B|313:113|281:57,1,110
80,64,20046,6,0,B|80:208|248:216,1,220
280,136,20924,1,0
360,80,21217,2,0,B|425:105|433:217,2,110
152,96,22388,6,0,B|168:155|207:197|280:208|330:171,1,220
264,96,23266,1,0
360,72,23558,2,0,B|413:39|469:81,1,110
408,160,24144,2,0,B|452:216|393:285,2,110,0|0|4
256,192,28241,12,0,29412
488,200,30583,2,0,B|416:208|368:224|368:224|335:191|240:192,1,220
136,48,31754,2,0,B|72:88|98:151|120:216|40:264,1,220
160,280,32632,2,0,B|176:224|256:216,1,110
272,312,33217,2,0,B|344:312|368:224,1,110
420,124,34095,6,0,B|396:76|332:52|260:52|220:84,1,220
132,116,34973,1,0
80,208,35266,2,0,B|128:252|180:208,2,110,0|0|4
80,80,36436,6,0,B|144:104|184:112|184:112|224:64|320:88,1,220
256,176,37314,1,0
192,248,37607,2,0,B|240:296|336:245,1,110
352,176,38193,1,0
438,323,38778,5,8
340,260,39217,1,8
240,260,39510,2,8,B|160:260,3,55
88,143,40388,2,8,B|144:112|168:136|200:168|280:120,1,165
317,205,41119,5,0
387,134,41412,1,0
316,63,41705,1,0
217,63,41997,2,0,B|188:43|149:74,1,55
94,133,42436,2,0,B|94:197,3,55
336,208,43461,5,8
336,59,43900,1,8
256,112,44193,2,8,B|208:144,3,55
64,128,45071,2,8,B|32:176|32:224|64:272|121:295|136:288,1,165
192,264,45802,5,0
262,193,46095,1,0
191,122,46388,1,0
121,191,46680,1,0
191,261,46973,2,0,B|255:325|335:197|415:261,1,220
424,56,48144,5,0
325,56,48436,2,0,B|264:40|216:72,1,110,8|0
132,118,49022,1,8
62,187,49314,2,0,B|36:244|68:296,1,110,0|8
152,232,49900,1,0
248,208,50193,1,8
320,128,50485,6,0,B|267:98|192:128,3,110,0|8|0|8
120,144,51656,1,0
64,224,51949,1,8
144,280,52241,1,0
232,240,52534,1,8
328,200,52827,5,0
421,142,53119,2,0,B|389:86|310:86,1,110,8|0
220,87,53705,2,0,B|156:87|124:143,1,110,8|0
127,247,54290,2,0,B|163:300|243:300,1,110,8|0
312,272,54875,1,8
241,185,55168,6,0,B|344:184,3,82.4999975413085,0|8|0|8
420,200,56339,2,0,B|384:220|416:268|388:300,2,110,0|8|4
420,200,57217,1,8
388,116,57510,5,0
288,88,57802,2,0,B|240:56|176:88,1,110,8|0
96,128,58388,1,8
48,216,58680,1,0
104,300,58973,2,0,B|129:263|184:316|224:276,2,110,8|0|8
132,204,59851,5,0
231,204,60144,2,8,B|295:204,1,55
335,204,60436,1,0
434,204,60730,2,8,B|498:204,1,55
486,258,61022,2,8,B|473:321|401:337,3,110,0|8|0|8
316,316,62193,5,4
224,280,62485,1,8
137,228,62778,2,0,B|81:188|129:116,1,110,0|8
169,45,63363,2,0,B|209:10|273:34,1,110,0|8
356,86,63949,1,0
425,155,64241,1,8
392,248,64534,6,0,B|312:304|224:248,1,165
256,192,65266,12,0,66875
88,160,76241,6,0,B|152:120|176:88|176:88|208:112|304:96,1,220
376,104,77119,1,0
440,176,77412,1,0
376,248,77705,1,0
288,208,77997,1,0
176,240,78583,6,0,B|143:190|187:129,1,110
244,74,79168,2,0,B|299:47|352:72,1,110
432,136,79754,1,0
384,224,80046,2,8,B|354:252|305:206|272:224,1,110
192,272,80632,1,8
144,80,81217,6,0,B|224:80|224:80|254:65|280:80|280:80|384:80,1,220
431,150,82095,1,0
360,216,82388,2,0,B|288:216|288:216|259:229|232:216|232:216|120:216,1,220
71,145,83266,5,0
168,120,83558,2,0,B|272:64|384:136,1,220
384,32,84436,2,0,B|464:16|488:120,2,110
464,216,85607,6,0,B|406:180|351:207|351:207|288:224|245:195|245:195|200:160|120:184,1,330
48,176,86778,2,0,B|24:240|80:288,2,110,0|0|4
240,128,87949,6,0,B|290:176|242:256,2,110,0|0|4
160,72,88827,1,0
88,136,89119,5,0
96,232,89412,2,0,B|176:256,2,55,0|0|4
256,192,90290,12,4,92046
328,192,92632,5,0
258,122,92924,1,0
187,192,93217,1,0
257,262,93510,1,0
355,262,93802,2,0,B|387:204|344:144,1,110,0|4
253,157,94388,2,0,B|222:215|264:276,2,110,0|4|0
292,72,95412,5,8
196,100,95705,2,8,B|132:100,3,55
36,208,96583,1,8
112,336,97022,1,8
212,289,97314,5,0
282,218,97607,1,0
208,156,97900,1,0
140,76,98193,2,0,B|161:76|170:69|170:69|177:80|177:80|187:69|187:69|194:79|194:79|203:69|203:69|212:79|212:79|223:70|223:70|235:79|235:79|243:70|243:70|255:79|255:79|263:70|263:70|275:78|275:78|284:69|284:69|293:79|293:79|302:69|302:69|314:79|314:79|326:70|326:70|335:79|335:79|347:70|347:70|357:79|357:79|370:70|370:70|382:79|412:76,1,330
420,272,99656,5,8
296,188,100095,1,8
225,258,100388,2,8,B|133:258,3,55
65,153,101266,1,8
213,153,101705,1,8
400,208,101997,5,0
329,137,102290,1,0
258,207,102583,1,0
327,276,102875,1,0
400,208,103168,2,0,B|333:240|319:219|258:218|235:166|170:212,1,220
56,52,104339,5,0
148,92,104632,1,8
240,56,104924,1,0
336,76,105217,1,8
353,173,105510,2,0,B|297:209|241:169,1,110,0|8
172,116,106095,2,0,B|172:234,1,110,0|8
120,312,106680,6,0,B|172:348|232:308,1,110,0|8
293,243,107266,2,0,B|352:216|419:251,1,110,0|8
469,312,107851,2,8,B|417:344|360:313,3,110
364,216,109022,5,0
307,134,109314,2,0,B|183:134,1,110,8|0
128,64,109900,1,8
100,160,110193,1,0
128,256,110485,2,8,B|189:288|258:252,1,110,0|0
332,236,111071,1,8
401,166,111363,5,0
330,95,111656,1,8
259,165,111949,1,0
189,95,112241,2,8,B|141:66|82:98,4,110,8|0|8|0|4
308,76,113705,6,0,B|335:106|385:58|420:76,1,110,0|8
377,176,114290,2,0,B|432:176,2,55,0|0|8
377,274,114875,6,0,B|352:304|298:259|256:272,1,110,0|8
171,269,115461,2,0,B|96:268,2,55,0|0|8
172,172,116046,6,0,B|227:132|294:183,3,110,0|8|0|8
345,100,117217,1,8
415,170,117510,1,8
345,239,117802,1,8
274,168,118095,1,4
256,72,118388,6,0,B|188:76|173:151,1,110
176,235,118973,2,0,B|196:300|276:304,1,110
344,256,119558,2,0,B|400:216|372:136,3,110,8|8|8|4
296,104,120729,6,0,B|240:137|237:95|237:95|193:71|173:121|89:126,1,220
40,204,121607,1,0
112,272,121900,1,8
204,236,122193,1,8
304,272,122485,1,0
440,80,132436,5,0
440,179,132729,2,0,B|420:247|344:259,1,110
280,204,133314,1,0
196,256,133607,1,0
108,212,133900,2,0,B|77:160|120:84,1,110,0|4
306,106,134778,5,0
388,52,135071,2,0,B|424:116|368:196,1,110,0|4
304,208,135656,2,0,B|268:268|315:326,1,110
388,256,136241,1,0
388,256,136534,1,4
284,88,137119,5,0
192,128,137412,1,0
121,198,137705,1,0
192,268,137997,1,0
291,268,138290,2,0,B|356:232|328:148,1,110
327,69,138875,1,4
132,96,139461,5,0
231,96,139754,2,0,B|289:66|343:96,1,110
288,180,140339,1,0
340,264,140632,2,0,B|292:300|216:252,3,110,0|4|0|4
352,176,142095,6,0,B|284:176,1,55,8|0
216,152,142680,2,0,B|141:152,1,55,8|0
88,108,143266,2,0,B|29:162|104:199|60:243|154:262|75:320,1,220
216,152,144436,5,8
388,56,145022,1,8
356,252,145607,2,0,B|228:252,2,110
432,68,146778,6,8,B|319:67|319:67|240:164,1,220
68,228,147949,1,0
68,228,148241,1,0
68,228,148534,1,0
138,298,148827,6,0,B|196:331|252:290,2,110,0|8|0
188,212,149705,1,8
140,124,149997,2,0,B|192:84|260:132,1,110,0|8
324,180,150583,1,12
416,80,152632,5,8
416,178,152924,1,8
416,277,153217,1,8
316,277,153510,1,8
316,178,153802,2,8,B|236:178,1,55
112,178,154388,5,8
284,84,154973,2,8,B|348:84,1,55
464,168,155558,1,8
336,316,156144,5,8
196,176,156729,1,8
377,96,157314,1,8
264,260,157900,1,8
228,64,158485,6,8,B|292:64,1,55
408,148,159071,1,8
252,268,159656,2,8,B|188:268,1,55
332,200,160241,1,8
272,120,160534,2,8,B|205:157|185:117|150:91|106:130,1,165
363,122,161705,5,8
363,122,161997,1,8
432,52,162290,1,8
165,122,162875,6,0,B|222:88|293:131,1,110,0|8
270,218,163461,2,0,B|224:253|157:219,1,110,0|8
88,164,164046,1,0
104,68,164339,1,8
200,44,164632,2,0,B|260:40|328:72,1,110,4|8
379,194,165217,6,0,B|308:200|283:130,1,110,0|8
190,144,165802,2,0,B|173:201|94:208,1,110,0|8
36,276,166388,1,8
132,300,166680,1,8
224,260,166973,2,0,B|276:292|336:276,1,110
388,220,167558,6,0,B|424:164|376:100,1,110,0|8
304,60,168144,2,0,B|256:116|320:196,1,110,0|8
276,260,168729,2,0,B|208:252|204:180,3,110,8|8|8|4
296,152,169900,6,0,B|252:60|116:104,1,165
256,192,170632,12,4,172241
