osu file format v9

[General]
AudioFilename: Matryoshka (Chorus).mp3
AudioLeadIn: 0
PreviewTime: 103900
Countdown: 0
SampleSet: Soft
StackLeniency: 0.7
Mode: 0
LetterboxInBreaks: 1

[Editor]
Bookmarks: 40534
DistanceSpacing: 0.8
BeatDivisor: 4
GridSize: 8

[Metadata]
Title:Matryoshka
Artist:NicoNico Chorus
Creator:Matoryoshika
Version:Hard
Source:Nico Nico Douga
Tags:nicovideo niconico douga vocaloid

[Difficulty]
HPDrainRate:8
CircleSize:4
OverallDifficulty:5
ApproachRate:7
SliderMultiplier:1.3
SliderTickRate:1

[Events]
//Background and Video events
Video,0,"Comp 2~2.avi"
0,0,"MatryoshkaBG.jpg"
//Break Periods
2,24929,27341
2,66494,75488
2,122689,131536
//Storyboard Layer 0 (Background)
//Storyboard Layer 1 (Fail)
//Storyboard Layer 2 (Pass)
//Storyboard Layer 3 (Foreground)
//Storyboard Sound Samples
//Background Colour Transformations
3,100,163,162,255

[TimingPoints]
1315,292.682926829268,4,2,0,50,1,0
4827,-100,4,1,0,50,0,0
5778,-100,4,2,2,50,0,0
15363,-100,4,1,0,50,0,0
38705,-100,4,2,2,50,0,0
48144,-100,4,1,0,50,0,1
66949,-100,4,1,0,50,0,0
80266,-100,4,2,0,50,0,0
80851,-100,4,1,0,50,0,0
94973,-100,4,2,2,50,0,0
103168,-100,4,1,0,50,0,0
104339,-100,4,1,0,50,0,1
111363,-200,4,1,0,50,0,1
111802,-100,4,1,0,50,0,1
123217,-100,4,1,0,50,0,0
133900,-100,4,2,0,50,0,0
142900,-100,4,1,0,5,0,0
143046,-100,4,1,0,50,0,0
145241,-100,4,1,0,5,0,0
145388,-100,4,1,0,50,0,0
147583,-100,4,1,0,5,0,0
147729,-100,4,1,0,50,0,0
152632,-100,4,2,2,50,0,0
160534,-200,4,2,2,50,0,0
160973,-100,4,2,2,50,0,0
162875,-100,4,1,0,50,0,1
172241,-100,4,1,0,50,0,0

[Colours]
Combo1 : 0,128,255
Combo2 : 255,255,0
Combo3 : 39,134,26
Combo4 : 64,0,64
Combo5 : 255,128,64

[HitObjects]
176,128,4827,2,0,B|246:103|329:136,1,130
352,240,5412,2,0,B|287:263|192:240,1,130
144,208,5997,5,0
208,160,6290,1,0
240,128,6436,1,0
272,160,6583,1,0
240,192,6729,1,0
352,160,7022,5,0
384,128,7168,1,0
416,160,7314,1,0
384,192,7461,2,0,B|384:272,2,65
272,192,8046,6,0,B|192:192,2,65
272,96,8632,2,0,B|208:48,1,65
174,57,8924,2,0,B|100:57,1,65
64,144,9363,2,0,B|128:192,5,65
160,80,10680,6,0,B|240:80|240:80|288:128,1,130
304,160,11119,1,0
336,192,11266,1,0
304,224,11412,1,0
208,224,11705,2,0,B|144:176,1,65
48,192,11997,2,0,B|112:240,1,65
112,336,12290,2,0,B|48:288,1,65
86,118,12729,6,0,B|102:88|102:88|160:80,1,65
176,80,13022,1,0
272,80,13314,2,0,B|304:144,1,65
352,80,13607,2,0,B|384:144,1,65
320,272,14046,6,0,B|320:192,1,65
240,128,14339,2,0,B|240:192,1,65
160,272,14632,2,0,B|160:192,1,65
448,160,15510,6,0,B|432:96|432:96|352:96,1,130
272,96,16095,1,0
240,64,16241,1,0
208,96,16388,1,0
240,144,16534,2,0,B|269:205|240:272,1,130
240,144,17119,1,0
112,240,17558,5,0
208,240,17851,1,0
240,208,17997,1,0
272,240,18144,1,0
240,272,18290,1,0
352,272,18583,2,0,B|352:128,3,130
304,64,20193,6,0,B|241:39|160:64,1,130
152,128,20632,1,0
152,128,20778,1,0
96,80,20924,1,0
96,80,21071,1,0
88,152,21217,2,0,B|50:215|56:296,1,130
128,296,21656,1,0
192,320,21802,1,0
232,112,22241,6,0,B|296:80|360:112,1,130
407,161,22680,1,0
356,211,22827,1,0
305,160,22973,1,0
357,111,23119,1,0
288,240,23412,1,0
216,240,23558,1,0
96,176,23851,5,0
187,176,24144,2,0,B|206:172|206:172|211:179|211:179|214:172|214:172|219:179|219:179|222:172|222:172|227:179|227:179|230:172|230:172|235:179|235:179|238:172|238:172|243:179|243:179|246:172|246:172|250:179|250:179|254:172|254:172|258:179|258:179|262:172|262:172|266:179|266:179|270:172|270:172|274:179|274:179|278:172|278:172|280:176|280:176|310:174,1,195
352,176,24729,1,4
144,192,28241,5,0
368,192,28534,1,0
266,293,28827,2,0,B|248:224|248:224|207:222|188:193|184:168|151:160|151:160|133:153|104:80,1,260
256,80,29705,5,0
256,192,29997,1,0
144,192,30290,1,0
256,192,30583,1,0
256,304,30875,1,0
256,192,31168,1,0
337,112,31607,6,0,B|277:77|277:77|209:112,1,130
160,152,32046,2,0,B|96:200,2,65
160,280,32632,1,0
208,304,32778,1,0
256,280,32924,1,0
360,280,33217,1,0
396,243,33363,1,0
359,206,33510,1,0
336,80,34241,6,0,B|253:68,1,65
336,144,34534,2,0,B|254:140,1,65
336,208,34827,2,0,B|270:218,1,65
336,272,35119,2,0,B|270:299,1,65
144,288,35558,1,0
144,160,35851,1,0
224,112,36290,6,0,B|245:147|322:126|352:176,1,130
368,256,36875,2,0,B|320:208,3,65
272,240,37461,1,0
240,208,37607,1,0
208,240,37754,2,0,B|160:192,1,65
112,192,38046,2,0,B|64:240,1,65
152,128,38778,6,8,B|216:106|216:106|298:136,1,130
272,128,39217,1,8
208,192,39510,1,8
256,208,39656,1,8
208,240,39802,1,8
256,256,39949,1,8
144,304,40241,1,8
112,272,40388,1,8
112,176,40680,1,8
144,144,40827,1,8
240,112,41266,6,0,B|305:102,1,65
240,176,41558,2,0,B|320:208,1,65
240,272,41997,2,0,B|320:304,1,65
384,240,42436,1,0
416,208,42583,1,0
448,240,42729,1,0
416,272,42875,1,0
352,64,43461,6,8,B|314:86|262:51|224:64,1,130
176,64,43900,1,8
176,176,44193,1,8
176,224,44339,1,8
176,272,44485,1,8
176,320,44632,1,8
272,320,44924,1,8
320,320,45071,1,8
320,224,45363,1,8
320,176,45510,1,8
272,80,45802,2,0,B|208:47|144:80,3,130
72,200,46973,5,0
215,200,47266,1,0
357,200,47558,1,0
357,71,48144,6,0,B|263:27|149:71,1,195
104,152,48875,1,0
160,240,49168,2,0,B|258:289|368:240,1,195
432,192,49900,1,0
368,96,50485,6,0,B|288:96,1,65
208,96,50924,1,0
160,96,51071,2,0,B|80:96,1,65
96,192,51510,1,0
48,192,51656,2,0,B|5:258|48:320,3,130
240,272,52827,6,0,B|240:208|240:208|298:169,1,130
336,144,53266,1,0
432,144,53558,1,0
336,144,53851,1,0
432,144,54144,1,0
480,176,54290,2,0,B|480:240|480:240|425:290,1,130
309,304,55168,6,0,B|298:304|285:297|285:297|276:312|276:312|268:296|268:296|260:311|260:311|250:296|250:296|240:310|240:310|230:297|230:297|218:311|218:311|209:298|209:298|202:310|202:310|185:306,1,195
112,304,55900,1,0
80,272,56046,1,0
112,240,56193,1,0
80,224,56339,1,0
112,192,56485,2,0,B|112:128,3,65
192,80,57510,6,0,B|216:80|216:80|277:144|277:144|318:144,1,130
304,80,57949,2,0,B|281:80|281:80|218:144|218:144|176:144,1,130
128,224,58534,1,0
288,224,58973,1,0
392,224,59266,1,0
304,128,59851,6,0,B|320:64,3,65
256,128,60436,2,0,B|240:48,3,65
243,64,61022,1,0
144,80,61314,1,0
112,112,61461,1,0
144,144,61607,2,0,B|144:157|150:167|150:167|141:176|141:176|151:186|151:186|141:193|141:193|150:201|150:201|142:210|142:210|151:217|151:217|143:226|143:226|149:237|149:256,1,130
256,240,62193,6,0,B|323:210|384:240,1,130
384,192,62632,2,0,B|321:156|256:192,1,130
256,128,63217,1,0
160,128,63510,2,0,B|160:192,1,65
160,288,63949,1,0
288,288,64534,6,0,B|328:242|287:195|244:158|293:81,1,195
176,96,65266,1,0
144,128,65412,1,0
176,160,65558,1,0
144,192,65705,1,0
176,224,65851,2,0,B|176:288,3,65
352,128,76388,6,0,B|326:188|247:195|247:195|182:135|182:135,1,195
144,96,77119,1,0
80,144,77412,2,0,B|37:206|80:272,1,130
144,304,77997,1,0
224,224,78436,6,0,B|286:200|352:224,1,130
384,224,78875,2,0,B|448:208,2,65
304,224,79461,2,0,B|240:208,1,65
160,192,79900,1,0
128,160,80046,1,0
208,80,80339,1,0
272,160,80632,1,0
176,272,81071,6,0,B|187:272|195:262|195:262|203:277|203:277|213:263|213:263|221:277|221:277|230:263|230:263|240:277|240:277|248:263|248:263|257:277|257:277|263:271|273:269,1,130
271,269,81510,1,0
352,272,81802,1,0
400,192,82095,2,0,B|340:155|256:192,2,130
400,96,83119,6,0,B|334:61|253:102,1,130
192,128,83705,2,0,B|153:140|144:192,1,65
208,256,84144,1,0
240,224,84290,1,0
272,256,84436,1,0
240,288,84583,1,0
192,304,84729,2,0,B|128:272,1,65
133,274,85022,1,0
112,112,85607,6,0,B|176:96,3,65
112,160,86193,2,0,B|176:176,4,65
112,240,87071,2,0,B|144:265|195:229,2,65
368,224,87949,5,0
368,144,88241,2,0,B|342:119|304:144,1,65
288,256,88827,2,0,B|224:297|161:249,1,130
160,176,89412,1,0
160,144,89558,1,0
256,192,90290,12,0,91461
109,132,91754,6,0,B|66:177|161:228|110:277,1,130
304,128,92632,2,0,B|352:192|304:272,3,130
256,192,93802,5,0
256,64,94095,1,0
256,192,94388,1,0
384,192,94680,1,0
256,192,94973,5,8
176,192,95266,1,8
160,192,95412,1,8
64,192,95705,1,8
32,224,95851,1,8
64,256,95997,1,8
96,224,96144,1,8
112,128,96436,2,8,B|176:80,1,65
240,96,96875,2,8,B|304:128,1,65
400,80,97314,6,8,B|373:110|400:144,4,65
320,48,98193,1,8
304,48,98339,1,8
256,48,98632,1,8
240,48,98778,1,8
224,48,98924,1,8
208,48,99071,1,8
128,48,99656,6,8,B|80:112|144:192,1,130
141,183,100095,1,8
232,183,100388,1,8
264,150,100534,1,8
296,182,100680,1,8
263,214,100827,1,8
160,256,101119,2,8,B|224:288,1,65
322,285,101558,2,8,B|388:256,1,65
256,192,101997,12,0,102875
160,192,103168,5,0
251,192,103461,1,0
342,192,103754,1,0
400,96,104339,5,0
320,96,104632,2,0,B|288:64|240:105,1,65
176,96,105071,1,0
96,96,105363,2,0,B|56:120|48:152|48:184|72:232,1,130
128,256,105949,2,0,B|163:279|210:249,1,65
72,160,106680,6,0,B|152:160,1,65
240,160,107119,1,0
292,160,107266,2,0,B|372:160,1,65
430,86,107705,1,0
466,122,107851,2,0,B|521:188|462:258,3,130,0|8|0|8
301,279,109022,5,0
236,214,109314,1,0
176,272,109607,1,8
160,272,109754,1,8
80,272,110046,2,0,B|108:229|55:192|80:128,1,130
112,128,110485,2,0,B|154:141|197:80|240:96,1,130
224,192,111363,6,8,B|257:215|286:173|320:192,1,97.5
395,190,112095,1,0
431,153,112241,1,0
467,189,112388,1,0
430,225,112534,1,0
374,280,112680,2,0,B|301:291,1,65
231,289,112973,2,0,B|146:270,1,65
63,158,113705,6,0,B|128:112|190:163,1,130
256,160,114290,2,0,B|320:160,1,65
400,160,114729,2,0,B|446:182|454:241|400:271,1,130
331,265,115314,2,0,B|251:265,1,65
192,144,116046,6,0,B|240:208,3,65
352,144,116632,2,0,B|304:208,3,65
304,208,117217,1,0
432,224,117510,5,0
336,304,117802,1,0
208,320,118095,1,0
96,240,118388,6,0,B|152:222|132:158|192:144,1,130
240,128,118973,2,0,B|274:156|274:156|328:118|328:118|368:128,1,130
386,122,119412,1,0
464,122,119705,2,0,B|464:200,1,65
464,272,120144,1,0
256,192,120729,12,0,122485
205,108,132436,6,0,B|179:88|144:112,2,65
261,163,132875,2,0,B|296:188|340:152,2,65
288,88,133314,1,0
360,56,133461,1,0
424,112,133607,2,0,B|458:160|397:203|424:240,1,130
421,314,134046,1,0
421,314,134193,1,4
120,72,134778,6,0,B|184:32|264:80,1,130
244,141,135217,1,0
244,141,135363,1,4
32,184,135656,2,0,B|44:184|52:175|52:175|61:189|61:189|73:175|73:175|82:191|82:191|92:175|92:175|103:191|103:191|115:183|115:183|124:192,1,130
256,160,136241,1,0
256,160,136388,1,0
256,160,136534,1,4
256,288,137119,6,0,B|336:304,1,65
256,224,137412,2,0,B|336:224,1,65
256,160,137705,2,0,B|336:147,1,65
256,96,137997,2,0,B|325:74,1,65
396,76,138290,2,0,B|415:119|415:119|391:159|391:159|407:202,2,130
96,80,139461,6,0,B|176:80,1,65
224,160,139754,2,0,B|160:160,1,65
96,240,140046,2,0,B|176:240,3,65
161,240,140632,1,0
320,224,140924,1,0
256,288,141217,1,0
336,336,141510,1,0
256,192,141802,12,0,142973
224,192,143266,5,0
256,160,143412,1,0
288,192,143558,1,0
256,224,143705,2,0,B|256:304,1,65
256,192,144144,12,0,145314
256,144,145607,6,0,B|288:120|336:144,1,65
336,192,145900,2,0,B|314:221|272:208,1,65
208,208,146193,1,0
256,192,146485,12,0,147656
224,208,147949,6,0,B|288:160,4,65
112,176,148827,2,0,B|98:135|144:112,1,65
192,80,149119,1,0
288,80,149412,2,0,B|329:74|352:128,1,65
320,192,149851,2,0,B|281:185|256:224,1,65
306,258,150144,2,0,B|291:295|242:290,1,65
220,230,150436,2,0,B|177:235|169:296,1,65
256,192,152632,5,8
128,192,152924,1,8
256,192,153217,1,8
384,192,153510,1,8
384,288,153802,2,8,B|304:288,1,65
224,288,154241,1,8
208,288,154388,1,8
128,288,154680,2,8,B|84:227|128:160,1,130
144,128,155119,1,8
224,128,155412,2,8,B|304:128,1,65
432,224,155851,5,8
365,225,155997,2,8,B|349:217|349:217|341:230|341:230|330:218|330:218|321:230|321:230|309:218|309:218|298:230|298:230|286:219|286:219|270:231,1,130
220,228,156436,1,8
168,228,156582,2,8,B|152:220|152:220|144:233|144:233|133:221|133:221|124:233|124:233|112:221|112:221|101:233|101:233|89:222|89:222|73:234,1,130
32,160,157022,2,8,B|68:96|160:112,3,130
288,64,158193,5,8
384,112,158485,2,8,B|352:176,1,65
256,208,158924,2,8,B|304:272,1,65
400,256,159363,1,8
384,160,159656,2,8,B|320:112,1,65
256,192,160095,2,8,B|192:128,1,65
208,64,160534,2,8,B|177:92|142:53|112:64,1,97.5
64,144,161266,6,8,B|32:208,1,65
112,208,161558,2,8,B|160:272,1,65
64,272,161851,2,8,B|32:336,1,65
112,336,162144,2,8,B|176:336,1,65
364,171,162875,6,0,B|354:86|249:111,1,130
199,106,163314,1,0
112,176,163607,1,0
176,272,163900,1,0
304,272,164193,2,0,B|368:256,1,65
432,144,164632,1,0
176,96,165217,6,0,B|256:80,3,65
176,160,165802,2,0,B|240:176,3,65
320,192,166388,1,0
416,224,166680,2,0,B|368:288,1,65
289,272,166973,2,0,B|270:259|270:259|261:274|261:274|252:259|252:259|242:273|242:273|235:260|235:260|222:274|222:274|210:263|210:263|192:279,1,130
80,272,167558,6,0,B|50:194|125:143,1,130
176,112,167997,2,0,B|239:70|320:112,1,130
400,176,168583,1,0
352,272,168875,2,0,B|272:288,1,65
176,288,169314,1,0
376,168,169900,5,0
142,168,170339,1,0
256,192,170632,12,4,172241
