osu file format v9

[General]
AudioFilename: NicoNico Chorus - Melt.mp3
AudioLeadIn: 2000
PreviewTime: 59160
Countdown: 0
SampleSet: Soft
StackLeniency: 0.5
Mode: 0
LetterboxInBreaks: 1

[Editor]
Bookmarks: 1455,35337,46631,60749,72043,83337,94631,111572,122866,136984,148278,159572,170866,187807,196278,210396,221690,238631
DistanceSpacing: 1.2
BeatDivisor: 4
GridSize: 8

[Metadata]
Title:Melt
Artist:NicoNico Chorus & Hatsune Miku
Creator:Kecco
Version:Hard
Source:Nico Nico Douga
Tags:Pokie Vocaloid Kaneko Teara Meruto

[Difficulty]
HPDrainRate:6
CircleSize:4
OverallDifficulty:8
ApproachRate:8
SliderMultiplier:1.5
SliderTickRate:1

[Events]
//Background and Video events
0,0,"bg.jpg"
//Break Periods
2,176713,195528
//Storyboard Layer 0 (Background)
//Storyboard Layer 1 (Fail)
//Storyboard Layer 2 (Pass)
//Storyboard Layer 3 (Foreground)
//Storyboard Sound Samples
//Background Colour Transformations
3,100,0,0,0

[TimingPoints]
1455,352.941176470588,4,2,1,30,1,0
9837,-200,4,2,1,70,0,0
11072,-100,4,2,1,70,0,0
12749,-100,4,2,1,70,0,0
14778,-200,4,2,1,70,0,0
15484,-100,4,2,1,70,0,0
17602,-200,4,2,1,70,0,0
18307,-100,4,2,1,70,0,0
46543,-200,4,2,1,70,0,0
60749,-100,4,2,1,90,0,1
71954,-100,4,2,1,100,0,0
72043,-100,4,2,1,90,0,1
83337,-100,4,2,1,100,0,0
88984,-100,4,2,1,70,0,1
89072,-100,4,2,1,70,0,0
100543,-100,4,2,1,70,0,0
122778,-200,4,2,1,50,0,0
136984,-100,4,2,1,90,0,1
148190,-100,4,2,1,100,0,0
148278,-100,4,2,1,90,0,1
159484,-100,4,2,1,100,0,0
159572,-100,4,2,1,90,0,1
163807,-200,4,2,1,50,0,0
196288,-100,4,2,1,50,0,0
199013,-200,4,2,1,30,0,0
201925,-200,4,2,1,50,0,0
204749,-100,4,2,1,70,0,0
208852,-100,4,2,1,5,0,0
208940,-100,4,2,1,70,0,0
210396,-100,4,2,1,90,0,1
221602,-100,4,2,1,100,0,0
221690,-100,4,2,1,90,0,1
237749,-100,4,2,1,100,0,0
238631,-100,4,2,1,90,0,1
238719,-100,4,2,1,100,0,0

[Colours]
Combo1 : 27,219,228
Combo2 : 237,24,248
Combo3 : 248,239,78
Combo4 : 250,16,16

[HitObjects]
256,192,1455,1,2
416,56,1984,1,0
416,56,2160,2,0,B|376:112|496:128|432:224,1,150,2|0
344,320,2866,1,2
256,192,3219,1,0
272,112,3396,1,0
344,64,3572,1,2
40,192,4278,5,2
256,64,4807,1,0
256,144,4984,1,2
416,192,5337,1,0
256,320,5690,1,2
96,192,6043,1,0
176,128,6219,1,0
256,64,6396,1,2
456,192,7102,6,0,B|368:144|336:256|224:184,1,225,2|0
160,192,7807,1,2
256,56,8160,1,0
416,88,8513,1,2
432,256,8866,1,0
360,320,9043,1,0
272,312,9219,1,2
256,56,9572,5,0
256,56,9749,1,0
256,56,9925,2,0,B|256:288,1,225,2|0
256,360,11160,1,0
256,360,11337,1,4
256,192,12749,6,0,B|192:224|96:224,1,150,4|8
72,152,13278,1,0
136,96,13454,2,0,B|128:48|56:40,2,75,0|0|8
256,8,14160,1,0
376,192,14513,1,8
256,192,14690,1,0
136,192,14866,2,0,B|112:256|40:264,1,112.5
32,184,15572,6,0,B|32:264|152:312,1,150,4|8
200,296,16102,1,0
368,184,16278,2,0,B|368:264|248:312,1,150,0|8
200,296,16807,1,0
200,216,16984,1,0
88,96,17337,1,8
160,24,17513,1,0
248,72,17690,2,0,B|312:80|352:32,1,112.5
432,40,18396,6,0,B|496:88|464:184,1,150,4|8
384,168,18925,1,0
304,200,19102,2,0,B|280:288|336:360,1,150,0|8
400,312,19631,1,0
368,240,19807,2,0,B|256:224|192:272,2,150,0|8|0
256,120,20866,5,8
256,40,21043,1,0
184,80,21219,1,8
192,160,21396,1,0
224,232,21572,1,8
256,312,21749,1,0
288,232,21925,1,8
320,160,22102,1,0
328,80,22278,1,8
256,40,22454,5,0
256,40,22631,1,8
256,120,22807,2,0,B|256:160,6,37.5,0|8|0|0|0|0|8
184,72,23513,1,0
256,40,23690,1,8
328,80,23866,1,0
256,40,24043,1,4
192,192,24396,6,0,B|120:240,2,75,8|0|0
360,192,25102,1,8
464,104,25278,1,0
360,192,25454,1,0
352,64,25631,1,0
360,192,25807,2,0,B|408:280|336:360,1,150,8|0
128,192,26513,5,8
184,120,26690,1,0
240,192,26866,1,0
256,16,27219,1,8
312,88,27396,1,0
368,16,27572,1,0
416,192,27925,2,0,B|416:304|320:336,1,150,8|0
328,232,28454,5,0
272,312,28631,1,8
240,192,28807,1,0
184,272,28984,1,0
160,144,29160,1,0
104,224,29337,1,8
256,64,29690,6,0,B|336:48|408:104,1,150,0|8
328,160,30219,1,0
392,224,30396,2,0,B|328:288|344:376,1,150,0|8
432,352,30925,1,0
472,272,31102,2,0,B|392:240|288:264,1,150,0|8
248,304,31631,1,0
160,328,31807,2,0,B|56:344|8:296,1,150,0|8
64,224,32337,1,0
112,144,32513,6,0,B|200:144,1,75
296,56,32866,2,0,B|192:56,1,75,8|0
336,144,33219,2,0,B|416:144,1,75
440,232,33572,1,8
384,304,33749,1,0
296,328,33925,2,0,B|240:352|192:336,1,75
224,248,34278,2,0,B|168:240|136:280,1,75,8|0
64,248,34631,5,0
8,176,34807,1,0
64,104,34984,1,8
120,176,35160,1,0
176,104,35337,1,4
440,48,35690,5,8
360,112,35866,1,0
448,168,36043,2,0,B|472:208|480:248,2,75,0|0|8
384,232,36572,1,0
296,208,36749,2,0,B|295:254|308:293,2,75,0|0|8
248,48,37455,5,0
160,32,37631,1,0
80,64,37807,1,8
48,144,37984,1,0
72,232,38160,6,0,B|88:280|80:320,1,75
168,248,38513,2,0,B|160:208|168:152,1,75,8|0
256,192,38866,1,0
328,240,39043,1,0
264,304,39219,1,8
336,360,39396,1,0
440,312,39572,6,0,B|472:240|448:144,1,150,0|8
408,72,40102,1,0
312,128,40278,2,0,B|224:144,1,75
144,72,40631,2,0,B|232:56,1,75,8|0
320,32,40984,5,0
408,72,41160,1,0
440,168,41337,2,0,B|440:216|440:256,1,75,8|0
464,328,41690,6,0,B|400:360|288:336,1,150,0|8
288,256,42219,1,0
232,328,42396,2,0,B|136:320|72:272,1,150,0|8
120,200,42925,1,0
32,216,43102,2,0,B|16:136|32:48,1,150,0|8
112,40,43631,5,0
200,72,43807,1,0
288,40,43984,1,0
368,80,44160,2,0,B|416:72|456:56,2,75,8|0|0
392,176,44690,2,0,B|456:184|488:184,2,75,0|8|0
408,288,45219,2,0,B|448:304|480:312,2,75,0|0|8
320,264,45749,1,0
240,304,45925,1,0
152,296,46102,1,0
80,240,46278,1,8
72,152,46455,1,0
120,72,46631,6,0,B|160:48|200:40,1,75,4|8
256,128,47337,2,0,B|256:208,1,75,0|8
392,72,48043,2,0,B|352:48|312:40,1,75,0|8
256,96,48749,1,0
256,184,49102,1,8
256,232,49278,1,0
256,280,49455,2,0,B|240:328|200:344,1,75,0|8
256,280,50160,2,0,B|272:328|312:344,2,75,0|8|0
256,144,51396,1,0
256,144,51572,1,0
448,96,51925,5,8
384,32,52278,2,0,B|336:8|296:40,1,75,0|8
344,112,52984,2,0,B|304:136|256:104,1,75,0|8
232,32,53690,2,0,B|200:16|152:32,2,75,0|8|0
256,120,54749,1,8
256,168,54925,1,0
256,216,55102,1,4
416,232,55455,5,8
440,192,55631,1,0
416,152,55807,1,0
96,232,56160,1,8
72,192,56337,1,0
96,152,56513,5,0
168,96,56866,1,8
256,64,57219,1,0
344,96,57572,1,8
416,152,57925,2,0,B|448:216|456:232,2,75,4|8|0
344,96,58984,1,8
344,96,59160,1,0
344,96,59337,1,0
168,96,59690,5,8
256,280,60043,1,0
344,96,60396,1,8
257,59,60749,6,0,B|281:115|254:175|233:235|259:289,1,225,4|0
256,280,61455,1,0
40,192,61807,5,8
64,104,61984,1,0
136,56,62160,2,0,B|216:48,1,75
208,136,62513,2,0,B|296:128,1,75,8|0
272,216,62866,2,0,B|352:208,1,75
344,296,63219,2,0,B|424:288,1,75,8|0
488,208,63572,5,0
432,136,63749,1,0
472,56,63925,1,8
384,40,64102,2,0,B|288:40,2,75
264,128,64631,2,0,B|344:128,2,75,8|0|0
392,216,65160,2,0,B|296:216,2,75,0|8|0
440,304,65690,1,0
352,352,65866,1,0
248,352,66043,5,8
168,296,66219,1,0
240,240,66396,2,0,B|248:200|240:160,1,75,4|0
296,96,66749,1,8
224,40,66925,1,0
168,112,67102,1,0
168,112,67455,5,8
80,128,67631,1,0
72,216,67807,2,0,B|64:256|48:304,2,75,0|0|8
152,280,68337,2,0,B|224:296|318:282,1,150
304,192,68866,2,0,B|345:187|392:192,1,75,8|0
448,272,69219,6,0,B|488:200|456:112,1,150,0|8
416,48,69749,1,0
336,96,69925,2,0,B|256:120|176:96,1,150,0|8
112,56,70455,1,0
112,56,70631,1,0
144,320,70984,5,8
256,112,71337,1,0
368,320,71690,1,8
256,192,72043,6,0,B|176:136|120:264|24:184,1,225,4|0
8,120,72749,1,0
176,48,73102,5,8
256,96,73278,1,0
328,48,73455,2,0,B|440:48,1,75
176,144,73807,2,0,B|72:144,1,75,8|0
368,216,74160,2,0,B|480:216,1,75
152,312,74513,2,0,B|48:312,1,75,8|0
48,224,74866,5,0
32,136,75043,1,0
112,168,75219,1,8
168,96,75396,2,0,B|256:96,1,75
272,8,75749,1,0
352,56,75925,1,8
352,144,76102,1,0
272,176,76278,1,0
192,208,76455,1,0
112,256,76631,6,0,B|72:240|24:240,2,75,8|0|0
168,328,77160,1,0
256,304,77337,1,8
344,320,77513,1,0
408,256,77690,2,0,B|456:192|448:80,1,150,4|8
488,200,78219,2,0,B|440:144|328:144,1,150
312,64,78749,5,8
256,0,78925,1,0
200,64,79102,2,0,B|112:63|64:119,1,150,4|8
104,34,79631,2,0,B|97:111|145:175,1,150
232,168,80160,1,8
320,144,80337,1,0
392,200,80513,5,12
384,288,80690,1,0
296,320,80866,1,8
224,256,81043,1,0
208,344,81219,2,0,B|160:352|112:328,1,75,8|0
96,256,81572,2,0,B|56:224|48:168,1,75,8|0
104,120,81925,2,0,B|120:64|168:48,1,75,8|0
232,32,82278,2,0,B|320:32,2,75,8|0|8
224,120,82807,1,0
312,136,82984,1,8
400,128,83160,1,0
400,128,83249,1,0
400,128,83337,5,4
352,352,83866,2,0,B|280:376|192:352,1,150
160,256,84396,2,0,B|168:168,1,75,8|0
104,88,84749,2,0,B|176:64|264:104,1,150,0|8
344,48,85278,2,0,B|416:96|424:176,1,150
432,296,85807,2,0,B|344:304,1,75,8|0
256,352,86160,6,0,B|256:248,1,75,12|0
96,192,86513,2,0,B|200:192,1,75,8|0
256,32,86866,2,0,B|256:136,1,75,8|0
416,192,87219,2,0,B|312:192,1,75,8|0
256,192,87572,5,8
256,192,87749,1,0
256,192,87925,1,8
256,192,88102,1,0
256,192,88278,1,8
200,120,88984,6,0,B|152:192|200:280,1,150,4|8
256,192,89513,1,0
312,120,89690,2,0,B|360:192|312:280,1,150,0|8
256,312,90219,1,0
176,320,90396,2,0,B|96:328,1,75
144,248,90749,2,0,B|48:256,1,75,8|0
120,176,91102,2,0,B|40:184,2,75,0|0|8
304,40,91807,6,0,B|384:16|464:48,1,150,0|8
384,120,92337,1,0
312,200,92513,2,0,B|392:224|472:192,1,150,0|8
384,120,93043,1,0
304,120,93219,2,0,B|208:120,1,75
208,264,93572,2,0,B|304:264,1,75,8|0
283,264,93925,1,8
283,264,94102,1,8
283,264,94278,1,8
184,112,94631,6,0,B|120:160|112:192,1,75,4|0
200,40,94984,2,0,B|240:16|288:8,1,75,8|0
336,72,95337,1,0
416,104,95513,2,0,B|464:128|480:160,2,75,0|8|0
352,168,96043,1,0
256,320,96396,1,8
160,168,96749,1,0
256,16,97102,5,8
256,16,97278,1,0
312,80,97455,1,8
392,120,97631,1,0
448,192,97807,1,8
392,264,97984,1,0
312,304,98160,1,8
256,368,98337,1,0
200,304,98513,5,8
120,264,98690,1,0
64,192,98866,1,8
152,192,99043,2,0,B|208:192,6,37.5,0|0|8|0|0|0|8
64,192,99749,1,0
120,264,99925,1,8
64,192,100102,1,0
120,120,100278,1,4
256,8,100631,6,0,B|288:32|296:104|360:112,2,150,8|0|8
216,88,101513,1,0
176,168,101690,2,0,B|152:208|168:264,1,75
224,312,102043,2,0,B|256:280|240:232,1,75,8|0
280,160,102396,1,0
336,224,102572,1,0
368,144,102749,2,0,B|416:112|464:128,2,75,8|0|0
120,168,103455,5,8
48,112,103631,1,0
24,200,103807,2,0,B|16:248|0:280,2,75,0|0|8
152,80,104513,5,0
232,40,104690,1,0
320,64,104866,2,0,B|376:56|416:104,1,75,8|0
192,184,105219,2,0,B|136:192|96:144,2,75,0|0|8
336,296,105925,6,0,B|376:328|400:368,2,75,0|0|8
344,208,106455,1,0
352,120,106631,2,0,B|328:80|296:56,2,75,0|0|8
344,208,107160,1,0
256,240,107337,2,0,B|216:256|176:264,2,75,0|0|8
344,208,107866,1,0
432,176,108043,2,0,B|464:152|504:144,2,75,0|0|8
344,208,108572,1,0
256,48,108749,5,0
256,48,108925,1,0
312,120,109102,2,0,B|400:120,1,75,8|0
208,176,109455,2,0,B|128:176,1,75
352,256,109807,2,0,B|440:256,1,75,8|0
160,304,110160,2,0,B|72:304,1,75
16,240,110513,5,8
88,184,110690,1,0
16,128,110866,1,0
88,72,111043,1,0
176,72,111219,1,8
240,8,111396,1,0
240,8,111484,1,0
240,8,111572,1,4
320,56,111749,5,0
408,40,111925,2,0,B|448:32|488:32,2,75,8|0|0
368,144,112455,2,0,B|328:144|288:158,2,75,0|8|0
432,208,112984,1,0
456,296,113160,1,0
384,352,113337,2,0,B|312:376|224:368,1,150,8|0
80,224,114043,5,8
80,224,114219,1,0
176,232,114396,1,0
139,150,114572,1,0
176,64,114749,1,8
256,24,114925,1,0
344,32,115102,6,0,B|384:32|424:24,2,75,0|0|8
360,120,115631,1,0
360,120,115807,2,0,B|320:120|280:112,2,75,0|0|8
448,88,116337,1,0
448,88,116513,2,0,B|448:128|440:168,2,75,0|0|8
360,120,117043,1,0
272,96,117219,6,0,B|240:176|272:256,1,150,0|8
360,248,117749,1,0
368,336,117925,2,0,B|296:368,1,75
208,368,118278,2,0,B|120:336,1,75,8|0
137,252,118631,6,0,B|169:172|137:92,1,150,0|8
141,15,119160,1,0
232,16,119337,1,0
304,72,119513,1,0
224,128,119690,1,8
288,192,119866,1,0
248,272,120043,6,0,B|216:352,1,75
352,240,120396,2,0,B|376:328,1,75,8|0
416,136,120749,2,0,B|480:208,1,75
400,24,121102,6,0,B|496:48,1,75,8|0
320,80,121455,1,0
232,80,121631,1,0
160,24,121807,2,0,B|64:48,2,75,8|0|0
232,80,122337,1,0
144,112,122513,1,8
96,192,122690,1,0
96,192,122778,1,0
96,192,122866,6,0,B|80:256|88:280,1,75,4|8
224,232,123572,2,0,B|232:200|232:144,1,75,0|8
360,232,124278,2,0,B|336:272|328:304,2,75,0|8|0
416,160,125337,5,8
392,120,125513,1,0
360,88,125690,2,0,B|320:64|272:72,1,75,0|8
200,72,126396,2,0,B|128:80|112:96,2,75,0|8|0
256,192,127631,1,0
256,192,127807,1,0
152,288,128160,5,8
152,288,128513,2,0,B|96:288|72:280,1,75,0|8
64,104,129219,2,0,B|104:96|144:96,1,75,0|8
224,64,129925,1,0
352,96,130455,5,0
392,120,130631,1,0
416,160,130807,1,0
416,208,130984,1,8
392,248,131160,1,0
360,280,131337,2,0,B|304:336|208:304,1,150
256,128,132749,6,0,B|256:48,1,75,0|8
256,256,133455,2,0,B|256:344,1,75,0|8
104,192,134160,1,4
256,192,134866,1,4
408,192,135572,1,4
400,104,135925,1,4
336,40,136278,1,4
256,0,136631,1,0
256,104,136984,6,0,B|280:160|253:220|232:280|258:334,1,225,4|0
255,325,137690,1,0
80,192,138043,2,0,B|16:144,1,75,8|0
144,112,138396,2,0,B|96:32,1,75
248,80,138749,2,0,B|240:-8,1,75,8|0
368,96,139102,2,0,B|392:8,1,75
456,176,139455,2,0,B|504:112,1,75,8|0
400,240,139807,6,0,B|416:280|416:328,2,75,0|0|8
328,296,140337,1,0
328,296,140513,2,0,B|304:336|256:352,2,75,0|0|8
312,208,141043,1,0
232,168,141219,1,0
152,216,141396,1,0
152,216,141484,1,0
152,216,141572,1,8
152,304,141749,5,0
56,312,141925,2,0,B|24:232,1,75
72,160,142278,1,8
72,160,142455,1,0
40,56,142631,6,0,B|112:24|192:56,1,150,0|8
272,80,143160,1,0
352,120,143337,1,0
440,120,143513,1,0
480,40,143690,1,8
392,40,143866,1,0
440,120,144043,6,0,B|464:200|432:280,1,150,0|8
392,344,144572,1,0
312,304,144749,1,0
240,352,144925,1,0
160,312,145102,1,8
240,264,145278,1,0
312,304,145455,6,0,B|352:232|312:144,1,150,0|8
216,176,145984,1,0
104,192,146160,2,0,B|64:120|104:32,1,150,0|8
216,32,146690,1,0
304,32,146866,6,0,B|384:40,1,75
456,88,147219,1,8
416,168,147396,1,0
416,168,147484,1,0
416,168,147572,1,0
464,248,147749,1,0
464,248,147837,1,0
464,248,147925,1,8
296,184,148278,6,0,B|128:184,2,150
256,16,149337,1,8
184,64,149513,1,0
120,128,149690,2,0,B|48:200,1,75
152,304,150043,2,0,B|240:368,1,75,8|0
392,256,150396,2,0,B|464:184,1,75
360,80,150749,2,0,B|272:16,1,75,8|0
256,112,151102,5,0
168,88,151278,1,0
88,136,151455,1,8
40,208,151631,2,0,B|24:296|88:360,1,150
152,304,152160,1,8
184,224,152337,1,0
216,304,152513,1,0
248,224,152690,1,0
336,224,152866,6,8,B|344:264|400:288,1,75,8|8
408,192,153219,2,0,B|400:152|344:136,1,75
280,96,153572,1,8
208,48,153749,1,0
136,96,153925,2,0,B|128:184|40:232,1,150,0|8
16,136,154455,2,0,B|104:136|160:208,1,150
184,280,154984,5,8
256,328,155160,1,0
336,280,155337,2,0,B|416:304|496:280,1,150,0|8
448,200,155866,1,0
376,144,156043,1,0
288,136,156219,1,0
248,56,156396,2,8,B|144:56,1,75
104,112,156749,5,8
56,184,156925,1,0
144,176,157102,1,8
96,256,157278,1,0
192,240,157455,1,8
144,312,157631,1,0
232,304,157807,1,8
184,384,157984,1,0
280,376,158160,5,8
232,304,158337,1,0
320,312,158513,1,8
272,232,158690,1,0
368,248,158866,1,8
320,176,159043,1,0
408,184,159219,1,8
360,104,159396,1,0
280,56,159572,6,0,B|200:24|120:64,1,150,4|0
24,208,160102,2,0,B|104:240|184:208,1,150
280,192,160631,2,0,B|335:263,1,75,8|0
448,336,160984,2,0,B|480:256|456:184,1,150,0|8
287,45,161513,2,0,B|255:125|282:199,1,150
320,328,162043,2,0,B|240:352,1,75,8|0
120,352,162396,5,8
200,280,162572,1,0
56,264,162749,1,8
144,200,162925,1,0
32,128,163102,1,8
136,104,163278,1,0
72,0,163455,1,8
176,16,163631,1,0
256,80,163807,6,0,B|256:128,4,37.5,8|0|8|0|12
448,160,165219,6,0,B|464:248,1,75,0|2
368,248,165925,2,0,B|368:328,1,75,0|2
280,296,166631,1,0
200,328,166984,1,2
112,320,167337,1,0
40,272,167690,1,2
32,184,168043,2,0,B|24:136|40:96,1,75,0|2
120,80,168749,6,0,B|128:128|112:168,1,75,0|2
184,216,169455,2,0,B|248:232|304:216,1,112.5
295,218,170160,1,0
424,88,170866,6,0,B|360:64|336:80,1,75,4|2
280,128,171572,2,0,B|232:136|192:120,1,75,0|2
128,80,172278,2,0,B|80:72|56:104,1,75,0|2
104,184,172984,1,0
144,264,173337,1,2
200,336,173690,1,0
256,128,175102,6,0,B|256:200,2,56.25,2|0|0
256,40,175984,1,0
256,40,176160,1,2
256,40,176337,1,0
256,40,176513,1,4
256,40,196278,5,4
440,192,196807,1,4
256,344,197337,1,4
72,192,197866,1,4
256,192,198396,1,4
376,80,199102,6,0,B|296:80,1,75,0|2
256,80,199631,1,0
208,80,199807,2,0,B|128:80,1,75,0|2
112,192,200513,1,0
256,312,200866,1,2
400,192,201219,1,0
136,312,201925,6,0,B|216:312,1,75,0|2
256,312,202455,1,0
304,312,202631,2,0,B|384:312,1,75,0|2
400,192,203337,1,0
256,72,203690,1,2
112,192,204043,1,0
256,312,204749,5,0
256,176,205278,1,0
256,176,205455,1,0
256,88,205807,1,2
168,88,206160,1,0
256,88,206513,1,2
344,88,206866,1,0
256,192,207219,5,2
256,240,207396,1,0
256,288,207572,1,4
256,192,207660,12,0,208896
256,192,208984,12,0,210043
184,144,210396,6,0,B|216:128|296:128|344:152,2,150,4|8|0
176,320,211455,2,0,B|80:320,1,75,8|0
48,224,211807,5,0
96,144,211984,1,0
96,144,212072,1,0
96,144,212160,2,0,B|192:144,1,75,8|0
240,72,212513,1,0
328,136,212690,1,0
416,64,212866,1,8
496,128,213043,1,0
472,296,213219,6,0,B|392:336,1,75
328,256,213572,2,0,B|272:176,1,75,8|0
208,104,213925,2,0,B|128:144,1,75
56,80,214278,1,8
56,80,214455,1,0
56,240,214631,5,0
112,312,214807,1,0
112,312,214896,1,0
112,312,214984,2,0,B|192:312,1,75,8|0
256,256,215337,1,0
312,328,215513,1,0
368,256,215690,1,8
424,328,215866,1,0
424,328,216043,6,0,B|464:256|424:168,1,150,0|8
456,72,216572,1,0
456,72,216660,1,0
456,72,216749,2,0,B|352:72,1,75
304,16,217102,2,0,B|216:16,1,75,8|0
88,56,217455,6,0,B|48:128|88:216,1,150,0|8
48,304,217984,1,0
48,304,218072,1,0
48,304,218160,2,0,B|120:344,1,75
203,340,218513,2,0,B|280:296,1,75,8|0
472,336,218866,6,0,B|480:240,1,75
472,144,219219,2,0,B|440:48,1,75,8|0
336,24,219572,2,0,B|240:8,1,75
152,16,219925,2,0,B|56:40,1,75,8|0
32,128,220278,2,0,B|24:224,1,75
64,288,220631,5,8
152,256,220807,1,0
152,256,220896,1,0
152,256,220984,1,0
224,304,221160,1,0
224,304,221249,1,0
224,304,221337,1,8
392,152,221690,6,0,B|280:96|248:224|88:136,1,300,4|0
264,64,222749,1,8
352,56,222925,1,0
304,136,223102,2,0,B|288:216,1,75
384,336,223455,2,0,B|400:248,1,75,8|0
400,168,223807,1,0
336,232,223984,1,0
272,296,224160,2,0,B|216:352|192:360,1,75,8|0
160,272,224513,2,0,B|72:272|16:168,2,150,0|8|0
168,184,225396,5,0
152,104,225572,1,8
240,136,225749,1,0
216,48,225925,1,0
304,72,226102,1,0
336,160,226278,1,8
424,192,226455,1,0
424,192,226543,5,0
424,192,226631,1,0
376,272,226807,1,0
376,272,226896,1,0
376,272,226984,1,8
160,240,227337,6,0,B|168:160|104:72,1,150,4|8
280,32,227866,2,0,B|304:112|400:144,1,150
400,224,228396,1,8
328,280,228572,1,0
248,328,228749,2,0,B|160:336|80:296,1,150,0|8
56,104,229278,2,0,B|120:56|208:56,1,150
248,128,229807,1,8
328,80,229984,1,0
376,152,230160,6,0,B|392:232,1,75
280,304,230513,2,0,B|264:216,1,75,8|0
136,168,230866,2,0,B|152:264,1,75
32,320,231219,2,0,B|16:224,1,75,8|0
16,152,231572,5,0
64,72,231749,1,0
152,104,231925,1,8
208,32,232102,1,0
304,32,232278,1,0
360,104,232455,1,0
448,72,232631,1,8
496,152,232807,1,0
464,240,232984,6,0,B|400:304|320:320,1,150,0|8
424,352,233513,2,0,B|416:272|344:224,1,150
264,248,234043,1,8
216,176,234219,1,0
136,144,234396,2,0,B|152:64|88:0,1,150,0|8
64,88,234925,2,0,B|152:40|224:48,1,150
280,96,235455,1,8
368,104,235631,1,0
424,176,235807,6,0,B|408:264,1,75,8|0
336,304,236160,1,8
248,336,236337,1,0
168,296,236513,2,0,B|112:216,1,75,8|0
56,176,236866,1,8
88,96,237043,1,0
168,56,237219,2,0,B|256:8,1,75,8|0
320,56,237572,1,8
256,104,237749,5,0
256,192,237925,1,0
256,280,238102,1,0
256,368,238278,1,0
256,16,238631,5,4
