osu file format v9

[General]
AudioFilename: NicoNico Chorus - Melt.mp3
AudioLeadIn: 2000
PreviewTime: 59160
Countdown: 0
SampleSet: Soft
StackLeniency: 0.5
Mode: 0
LetterboxInBreaks: 1

[Editor]
Bookmarks: 1455,35337,46631,60749,72043,83337,94631,111572,122866,136984,148278,159572,170866,187807,196278,210396,221690,238631
DistanceSpacing: 1
BeatDivisor: 4
GridSize: 8

[Metadata]
Title:Melt
Artist:NicoNico Chorus & Hatsune Miku
Creator:Kecco
Version:Easy
Source:Nico Nico Douga
Tags:Pokie Vocaloid Kaneko Teara Meruto

[Difficulty]
HPDrainRate:2
CircleSize:3
OverallDifficulty:2
ApproachRate:2
SliderMultiplier:0.8
SliderTickRate:1

[Events]
//Background and Video events
0,0,"bg.jpg"
//Break Periods
2,89184,99071
2,176713,194718
//Storyboard Layer 0 (Background)
//Storyboard Layer 1 (Fail)
//Storyboard Layer 2 (Pass)
//Storyboard Layer 3 (Foreground)
//Storyboard Sound Samples
//Background Colour Transformations
3,100,0,0,0

[TimingPoints]
1455,352.941176470588,4,2,1,30,1,0
11954,-100,4,2,1,0,0,0
12131,-100,4,2,1,70,0,0
46543,-200,4,2,1,70,0,0
60749,-100,4,2,1,90,0,1
71954,-100,4,2,1,100,0,0
72043,-100,4,2,1,90,0,1
83337,-100,4,2,1,100,0,0
88984,-100,4,2,1,70,0,1
89072,-100,4,2,1,70,0,0
100543,-100,4,2,1,70,0,0
122778,-200,4,2,1,50,0,0
136896,-100,4,2,1,30,0,0
148190,-100,4,2,1,100,0,0
148278,-100,4,2,1,90,0,1
159572,-100,4,2,1,100,0,0
159660,-100,4,2,1,90,0,1
163807,-200,4,2,1,50,0,0
196288,-100,4,2,1,50,0,0
199013,-200,4,2,1,30,0,0
210396,-100,4,2,1,90,0,1
221602,-100,4,2,1,100,0,0
221690,-100,4,2,1,90,0,1
238543,-100,4,2,1,100,0,0
238631,-100,4,2,1,90,0,1
238719,-100,4,2,1,100,0,0

[Colours]
Combo1 : 27,219,228
Combo2 : 237,24,248
Combo3 : 248,239,78
Combo4 : 250,16,16

[HitObjects]
128,80,1455,2,0,B|296:80,1,160,2|2
368,80,2513,1,0
432,128,2866,2,0,B|480:160|496:200,2,80,2|0|2
376,280,4278,5,2
216,280,4984,2,0,B|120:280,1,80,2|0
72,232,5690,1,2
24,168,6043,1,0
72,104,6396,1,2
232,128,7102,6,0,B|408:128,1,160,2|2
288,248,8513,2,0,B|120:248,1,160,2|2
256,192,9925,12,0,12043
256,192,12749,6,0,B|80:192,1,160,4|0
176,56,14160,2,0,B|352:56,1,160
256,192,15572,2,0,B|432:192,1,160,4|0
336,56,16983,2,0,B|160:56,1,160
88,192,18396,5,4
176,328,19102,1,0
336,328,19807,1,0
424,192,20513,1,0
256,192,21219,12,0,24043
256,192,24749,5,0
256,32,25454,1,8
120,112,26160,1,0
72,264,26866,6,0,B|88:344|184:368,1,160,8|0
256,224,28278,1,0
392,312,28984,1,8
472,168,29690,6,0,B|424:88|312:88,1,160,8|0
176,88,31102,2,0,B|91:86|43:166,1,160,8|0
176,264,32513,2,0,B|376:264,2,160,8|0|8
256,128,34631,1,0
392,40,35337,1,0
400,200,36043,6,0,B|400:368,1,160,0|8
256,296,37454,1,0
192,152,38160,2,0,B|16:152,2,160,8|0|8
256,8,40278,1,0
368,120,40984,6,0,B|392:224|320:304,1,160,8|0
168,273,42396,2,0,B|120:224|144:120,1,160,8|0
256,8,43807,1,8
256,168,44513,5,0
256,328,45219,1,8
256,168,45925,1,0
256,24,46631,6,0,B|192:24|144:24,1,80,4|8
120,80,48043,2,0,B|120:176,1,80,8|0
176,216,49454,2,0,B|256:296,1,80,8|0
312,296,50866,2,0,B|408:296,1,80,8|0
448,240,52278,5,4
392,176,52984,1,0
320,136,53690,1,8
248,104,54396,1,0
168,104,55102,6,0,B|56:104,1,80,8|0
72,184,56513,2,0,B|144:256,1,80,8|0
192,288,57925,5,8
272,288,58631,1,0
344,256,59337,1,8
416,288,60043,1,0
464,232,60749,6,8,B|328:144,1,160,4|0
192,64,62160,2,0,B|96:64|56:160,1,160,8|0
144,280,63572,2,0,B|304:280,1,160,8|0
392,144,64984,1,8
496,264,65690,1,0
496,104,66396,6,0,B|448:16|352:40,1,160,4|0
208,64,67807,2,0,B|48:64,1,160,8|0
56,224,69219,2,0,B|240:224,1,160,8|0
328,112,70631,1,8
488,80,71337,1,0
480,240,72043,6,0,B|320:288,1,160,4|8
176,344,73454,2,0,B|80:344|40:248,1,160,8|0
128,128,74866,2,0,B|288:128,1,160,8|0
392,248,76278,1,8
496,128,76984,1,0
496,288,77690,6,0,B|448:376|352:352,1,160,4|0
280,216,79101,2,0,B|120:216,1,160,8|0
80,64,80513,1,8
224,144,81219,1,0
360,64,81925,1,8
496,144,82631,1,0
416,288,83337,6,8,B|248:288,1,160,8|0
120,200,84749,2,0,B|288:200,1,160,8|0
416,112,86160,2,0,B|248:112,1,160,8|0
120,24,87572,2,0,B|288:24,1,160,8|0
256,184,88984,5,4
128,80,100631,6,0,B|296:80,1,160
368,80,101689,1,0
432,128,102042,2,0,B|480:160|496:200,2,80
376,280,103454,5,0
216,280,104160,2,0,B|120:280,1,80
72,232,104866,1,0
24,168,105219,1,0
72,104,105572,1,0
152,112,105925,6,0,B|328:112,1,160
408,240,107337,2,0,B|240:240,1,160
256,192,108749,12,0,110866
256,192,111572,6,0,B|80:192,1,160,8|0
176,56,112984,2,0,B|352:56,1,160,8|0
256,192,114395,2,0,B|432:192,1,160,8|0
336,56,115806,2,0,B|160:56,1,160,8|0
88,192,117219,5,8
176,328,117925,1,0
336,328,118630,1,8
424,192,119336,1,0
256,192,120042,12,0,122866
256,192,123572,5,0
256,112,124277,1,8
256,32,124983,1,0
176,40,125689,6,0,B|120:72|144:136,1,80,8|0
168,176,127101,1,8
224,232,127807,1,0
216,312,128513,6,0,B|224:360|296:376,1,80,8|0
296,296,129925,2,0,B|352:304|400:256,1,80,8|0
320,224,131337,6,8,B|320:128,2,80,8|0|8
240,216,133454,1,8
184,160,134160,6,8,B|96:88,2,80,8|0|8
240,104,136277,1,0
272,176,136983,6,0,B|448:176,2,160,4|0|8
256,336,139101,1,0
360,216,139807,6,0,B|384:112|312:32,1,160,8|0
176,64,141219,2,0,B|128:113|152:217,1,160,8|0
256,96,142631,1,8
256,256,143336,5,0
400,192,144042,1,8
424,32,144748,1,0
256,24,145454,2,0,B|192:24|88:128,2,160,8|0|8
256,184,147572,1,0
344,312,148278,6,0,B|440:160,1,160,4|0
344,40,149690,2,0,B|160:40,1,160,8|0
56,136,151102,2,0,B|24:216|80:296,1,160,8|0
208,200,152513,1,8
336,296,153219,1,0
464,200,153925,6,0,B|464:32,1,160,8|0
304,32,155337,2,0,B|216:8|128:72,1,160,8|0
72,192,156749,2,0,B|48:280|112:352,1,160,8|0
264,336,158160,2,0,B|424:272,1,160,8|0
256,232,159572,5,4
392,144,160278,1,0
256,64,160984,1,8
120,144,161690,1,0
256,192,162396,12,0,164513
256,192,165219,5,2
176,192,165925,1,0
96,192,166631,1,2
136,120,167337,1,0
216,120,168043,1,2
256,48,168749,5,0
336,48,169454,1,2
416,48,170160,1,0
456,120,170866,6,0,B|456:232,1,80,2|0
432,272,172278,2,0,B|368:296|328:264,1,80,2|0
296,224,173690,2,0,B|184:224,1,80,2|0
144,192,175102,2,0,B|88:168|72:112,1,80,2|0
128,72,176513,5,4
288,192,196278,6,4,B|224:192,4,60
256,120,199102,6,0,B|368:120,1,80,2|2
400,168,200513,2,0,B|400:264,1,80,2|2
344,312,201925,2,0,B|288:320|256:312,1,80,2|2
184,304,203337,2,0,B|136:296|112:248,1,80,2|2
72,200,204749,5,2
104,128,205454,1,2
168,88,206160,1,2
248,72,206866,1,2
256,192,207572,12,0,209690
256,192,210396,6,0,B|80:192,2,160,4|0|8
256,32,212514,1,0
152,168,213220,6,0,B|128:272|200:352,1,160,8|0
336,320,214632,2,0,B|384:271|360:167,1,160,8|0
256,288,216043,1,8
256,128,216749,5,0
112,192,217455,1,8
88,352,218161,1,0
256,360,218867,2,0,B|320:360|424:256,2,160,8|0|8
256,200,220985,1,0
168,72,221691,6,0,B|72:224,1,160,4|0
168,344,223103,2,0,B|352:344,1,160,8|0
456,248,224513,2,0,B|488:168|432:88,1,160,8|0
304,184,225926,1,8
176,88,226632,1,0
48,184,227338,6,0,B|48:352,1,160,8|0
208,352,228750,2,0,B|304:384|384:312,1,160,8|0
440,192,230160,2,0,B|464:104|400:32,1,160,8|0
248,48,231573,2,0,B|88:112,1,160,8|0
256,152,232985,5,8
120,240,233691,1,0
256,320,234397,1,8
392,240,235103,1,0
256,192,235807,12,4,238629
