osu file format v9

[General]
AudioFilename: Yukki.mp3
AudioLeadIn: 0
PreviewTime: -1
Countdown: 0
SampleSet: Soft
StackLeniency: 0.7
Mode: 0
LetterboxInBreaks: 1

[Editor]
DistanceSpacing: 0.8
BeatDivisor: 4
GridSize: 16

[Metadata]
Title:Yuki Yuki Yuki
Artist:Nico Nico Douga
Creator:Dariuski
Version:Normal
Source:
Tags:

[Difficulty]
HPDrainRate:3
CircleSize:4
OverallDifficulty:4
ApproachRate:4
SliderMultiplier:1.8
SliderTickRate:4

[Events]
//Background and Video events
0,0,"mirai_nikki_04002.jpg"
Video,0,"Yukki video.flv"
//Break Periods
//Storyboard Layer 0 (Background)
//Storyboard Layer 1 (Fail)
//Storyboard Layer 2 (Pass)
//Storyboard Layer 3 (Foreground)
//Storyboard Sound Samples
//Background Colour Transformations
3,100,163,162,255

[TimingPoints]
2092.42857142857,476.490476190476,4,2,0,100,1,0
17800,-100,4,2,0,100,0,0
24757,-100,4,2,0,100,0,0
25379,-83.3333333333333,4,2,0,100,0,0
28737,-100,4,2,0,100,0,0
29178,-83.3333333333333,4,2,0,100,0,0
32419,-100,4,2,0,100,0,0
48219,-100,4,2,0,100,0,0
55102,-100,4,2,0,100,0,0
55719,-83.3333333333333,4,2,0,100,0,0
59230,-100,4,2,0,100,0,0
59691,-83.3333333333333,4,2,0,100,0,0

[Colours]
Combo1 : 167,88,116
Combo2 : 255,0,255
Combo3 : 255,128,255
Combo4 : 109,67,105

[HitObjects]
256,64,2092,1,4
320,176,2568,1,0
288,304,3045,1,0
240,304,3283,1,0
192,304,3521,1,0
128,224,3998,2,2,B|64:160,3,90
192,160,4951,5,8
192,160,5427,1,8
320,160,5904,5,0
368,176,6142,1,0
416,208,6380,1,0
288,320,6857,2,2,B|288:224,2,90
176,304,7810,1,8
112,224,8286,1,8
128,176,8525,5,0
160,128,8763,1,8
272,80,9239,1,8
384,144,9716,5,4
336,272,10192,1,0
288,288,10431,1,0
240,272,10669,1,8
112,240,11145,1,8
160,112,11622,6,2,B|224:176,2,90
256,80,12575,6,0,B|368:96|464:144|464:144,1,180
432,224,13528,1,2
432,224,13766,1,2
432,224,14004,1,2
336,304,14481,1,8
208,304,14957,1,8
160,192,15434,5,8
256,288,15910,1,8
352,192,16387,1,8
256,96,16863,1,8
256,96,17340,5,0
304,192,17816,2,0,B|448:288,1,135
400,336,18531,2,0,B|231:324,1,135
160,320,19246,1,0
256,192,19722,12,0,21152
144,192,21628,2,0,B|144:176|256:64,1,135
144,192,22343,2,0,B|272:272|272:272,1,135
112,304,23058,1,0
32,176,23534,5,8
64,112,23772,1,0
128,80,24010,1,8
192,64,24249,1,0
256,64,24487,1,8
256,192,24963,5,0
320,288,25439,2,0,B|320:272|400:112,4,162.000003862381
192,304,27346,5,0
192,240,27584,1,0
192,176,27822,1,0
192,64,28299,1,0
432,208,28775,5,0
384,304,29252,2,0,B|272:256|208:240,1,162.000003862381
160,240,29967,2,0,B|176:192|192:80,1,162.000003862381
256,192,30681,12,0,32349
256,192,32587,1,4
384,240,33064,1,0
288,320,33540,1,0
240,320,33779,1,0
192,320,34016,1,0
144,224,34493,2,2,B|144:112,3,90
256,144,35446,5,8
384,144,35923,1,8
384,64,36399,1,0
256,64,36875,1,0
96,64,37352,2,2,B|96:160,2,90
160,160,38305,5,8
160,160,38781,1,8
224,256,39258,2,8,B|336:224,3,90
384,224,40211,5,4
384,80,40688,1,0
208,80,41164,1,0
208,80,41402,1,0
208,80,41640,1,0
80,208,42117,6,2,B|144:272,2,90
160,128,43070,6,0,B|256:48|368:80|368:80,1,180
368,208,44023,2,2,B|304:144,2,90
240,256,44976,1,8
112,224,45453,1,8
176,112,45929,5,8
336,112,46405,1,8
336,272,46882,1,8
176,272,47358,1,8
208,96,47835,5,0
256,192,48311,2,0,B|256:176|368:80,1,135
256,192,49026,2,0,B|112:288|112:288,1,135
144,176,49741,2,0,B|112:144|64:80,1,90
256,192,50217,12,0,51647
368,160,52123,2,0,B|288:112|208:96,1,135
192,160,52838,2,0,B|48:224|48:224,1,135
160,256,53553,1,0
288,176,54029,5,8
256,112,54267,1,0
192,80,54505,1,8
128,96,54744,1,0
64,128,54982,1,8
128,240,55459,5,0
224,272,55934,2,0,B|224:256|304:96,2,162.000003862381
112,272,57007,1,0
224,272,57365,1,0
336,272,57841,5,0
384,224,58080,1,0
416,160,58318,1,0
304,80,58794,1,0
208,192,59271,5,0
240,304,59747,2,0,B|272:304|432:320,1,162.000003862381
464,272,60462,2,0,B|400:80|400:80,1,162.000003862381
256,192,61176,12,4,63083
