osu file format v9

[General]
AudioFilename: Yukki.mp3
AudioLeadIn: 0
PreviewTime: -1
Countdown: 0
SampleSet: Soft
StackLeniency: 0.7
Mode: 0
LetterboxInBreaks: 1

[Editor]
DistanceSpacing: 0.8
BeatDivisor: 4
GridSize: 16

[Metadata]
Title:Yuki Yuki Yuki
Artist:Nico Nico Douga
Creator:Dariuski
Version:Insane
Source:
Tags:

[Difficulty]
HPDrainRate:8
CircleSize:4
OverallDifficulty:7
ApproachRate:8
SliderMultiplier:2.7
SliderTickRate:4

[Events]
//Background and Video events
0,0,"mirai_nikki_04002.jpg"
Video,0,"Yukki video.flv"
//Break Periods
//Storyboard Layer 0 (Background)
//Storyboard Layer 1 (Fail)
//Storyboard Layer 2 (Pass)
//Storyboard Layer 3 (Foreground)
//Storyboard Sound Samples
//Background Colour Transformations
3,100,163,162,255

[TimingPoints]
2092.42857142857,476.490476190476,4,2,0,100,1,0
17800,-66.6666666666667,4,2,0,100,0,0
24757,-100,4,2,0,100,0,0
25379,-66.6666666666667,4,2,0,100,0,0
28737,-100,4,2,0,100,0,0
29178,-66.6666666666667,4,2,0,100,0,0
32419,-100,4,2,0,100,0,0
48219,-66.6666666666667,4,2,0,100,0,0
55102,-100,4,2,0,100,0,0
55719,-66.6666666666667,4,2,0,100,0,0
59230,-100,4,2,0,100,0,0
59691,-66.6666666666667,4,2,0,100,0,0

[Colours]
Combo1 : 167,88,116
Combo2 : 255,0,255
Combo3 : 255,128,255
Combo4 : 109,67,105

[HitObjects]
64,96,1854,1,0
256,64,2092,1,4
432,112,2330,2,0,B|464:192,1,67.5
448,288,2688,1,0
288,288,2926,1,0
176,272,3164,1,0
144,304,3283,1,0
32,208,3521,1,0
128,96,3760,5,0
208,144,3998,1,8
240,112,4117,1,0
288,96,4236,1,0
336,80,4355,1,0
384,96,4474,1,8
432,112,4593,1,0
464,144,4712,1,0
448,256,4951,5,2
352,288,5189,2,0,B|256:288,1,67.5,2|0
176,288,5427,1,2
96,240,5666,2,0,B|48:192,1,67.5
48,144,5904,2,0,B|112:96,1,67.5
192,96,6142,1,8
192,96,6380,1,8
320,96,6619,5,0
448,96,6857,1,0
448,240,7095,1,0
400,240,7214,1,0
352,240,7333,1,0
208,240,7572,5,8
208,240,7810,1,8
64,192,8048,1,8
64,192,8286,1,8
64,64,8525,5,0
160,96,8763,2,2,B|224:144,1,67.5
272,128,9001,2,2,B|336:80,1,67.5
400,80,9239,1,2
480,176,9478,1,0
416,272,9716,5,2
288,304,9954,2,0,B|128:240,1,135
64,176,10431,1,0
144,96,10669,2,2,B|224:112,2,67.5
48,80,11145,1,0
64,176,11383,1,0
64,272,11622,5,8
128,304,11781,1,8
192,336,11939,1,8
256,320,12098,1,8
336,256,12336,1,8
416,176,12575,6,0,B|352:64|240:48|128:80,1,270
96,128,13289,6,2,B|96:240,1,67.5
176,208,13528,2,2,B|176:128,1,67.5
256,160,13766,2,2,B|256:240,1,67.5
336,224,14004,1,2
448,240,14242,1,0
448,240,14362,1,0
432,160,14481,2,8,B|368:128,1,67.5
240,80,14838,2,8,B|144:64,1,67.5
80,96,15195,1,0
64,192,15434,5,8
256,336,15910,1,8
448,192,16387,1,8
256,48,16863,1,8
96,96,17340,6,0,B|48:160|64:240,1,135,0|0
288,288,17816,2,0,B|400:288|432:160,1,202.49999396503,0|0
384,96,18173,2,0,B|224:64|144:112,1,202.49999396503,0|0
64,160,18531,2,0,B|144:304|224:288,1,202.49999396503,0|0
448,144,18888,2,0,B|288:16|208:64,1,202.49999396503,0|0
112,112,19246,2,0,B|48:240|112:320,1,202.49999396503,0|0
256,192,19722,12,0,21152
80,256,21628,2,0,B|192:256|224:128,1,202.49999396503
432,288,21985,2,0,B|272:256|192:304,1,202.49999396503
304,176,22343,2,0,B|416:176|448:48,1,202.49999396503
240,80,22700,2,0,B|80:48|0:96,1,202.49999396503
368,96,23058,2,0,B|304:224|368:304,1,202.49999396503
240,288,23534,5,2
128,272,23772,1,2
96,224,23891,1,0
80,176,24010,1,2
80,128,24130,1,0
96,80,24249,1,2
144,48,24368,1,0
192,32,24487,1,2
400,64,24963,6,0,B|352:128|368:208,1,135
304,304,25439,2,0,B|416:304|448:176,1,202.49999396503
336,192,25796,2,0,B|176:160|96:208,1,202.49999396503
96,304,26154,2,0,B|208:304|240:176,1,202.49999396503
432,96,26511,2,0,B|272:64|192:112,1,202.49999396503
80,64,26869,2,0,B|176:160|160:272,1,202.49999396503
192,320,27346,5,0
336,320,27584,2,0,B|336:208,1,101.249996982515
336,144,27822,1,0
416,64,28061,1,0
416,64,28180,1,0
240,64,28537,2,0,B|144:96,1,101.249996982515
128,128,28775,6,0,B|192:208|144:256,1,135
320,272,29251,2,0,B|432:304|464:160,1,202.49999396503
288,96,29608,2,0,B|144:16|112:144,1,202.49999396503
144,272,29966,2,0,B|256:272|288:144,1,202.49999396503
432,112,30323,2,0,B|272:80|192:128,1,202.49999396503
256,192,30681,12,0,32349
256,192,32587,1,4
368,112,32825,2,0,B|448:128,1,67.5
272,48,33183,1,0
112,96,33421,1,0
128,224,33659,1,0
112,256,33778,1,0
240,336,34016,1,0
368,288,34255,5,0
256,192,34493,1,8
304,160,34612,1,0
336,112,34731,1,0
304,64,34850,1,0
256,48,34969,1,8
208,64,35088,1,0
176,96,35207,1,0
80,144,35446,5,2
160,240,35684,2,2,B|256:240,1,67.5,2|0
304,240,35922,1,2
416,144,36161,2,0,B|464:96,1,67.5
400,48,36399,2,0,B|288:48,1,67.5
256,64,36637,1,8
128,128,36875,1,8
144,272,37114,5,0
272,208,37352,1,0
416,144,37590,1,0
448,192,37709,1,0
432,240,37828,1,0
320,304,38067,5,8
320,304,38305,1,8
176,272,38543,1,8
176,272,38781,1,8
80,160,39020,5,0
160,192,39258,2,2,B|192:128,1,67.5
272,160,39496,2,2,B|240:224,1,67.5
320,256,39734,1,2
432,176,39973,1,0
368,80,40211,5,2
224,144,40449,2,0,B|64:80,1,135
336,192,40926,1,0
368,288,41164,2,2,B|448:304,2,67.5
240,272,41640,1,0
112,210,41878,1,0
224,112,42117,5,8
288,96,42276,1,8
352,80,42434,1,8
416,64,42593,1,8
416,176,42831,1,8
400,272,43070,6,0,B|320:304|208:320|96:288,1,270
47,182,43784,6,2,B|118:267,1,67.5
160,192,44023,2,2,B|108:130,1,67.5
190,103,44261,2,2,B|241:164,1,67.5
292,101,44499,1,2
432,96,44737,1,0
432,96,44857,1,0
448,176,44976,2,8,B|384:144,1,67.5
288,288,45333,2,8,B|192:272,1,67.5
128,144,45690,1,0
64,192,45929,5,8
256,336,46405,1,8
448,192,46882,1,8
256,48,47358,1,8
160,192,47835,6,0,B|112:256|128:336,1,135
176,80,48311,2,0,B|288:80|400:144,1,202.49999396503
368,208,48668,2,0,B|208:176|128:240,1,202.49999396503
32,256,49026,2,0,B|144:256|176:128,1,202.49999396503
288,64,49383,2,0,B|256:128|432:256,1,202.49999396503
128,240,49741,2,0,B|240:176|208:48,1,202.49999396503
256,192,50217,12,0,51647
80,256,52123,2,0,B|192:256|224:128,1,202.49999396503
400,192,52480,2,0,B|240:160|160:208,1,202.49999396503
208,304,52838,2,0,B|320:304|352:176,1,202.49999396503
336,96,53195,2,0,B|176:64|96:112,1,202.49999396503
400,112,53553,2,0,B|336:240|400:320,1,202.49999396503
112,208,54030,5,2
256,160,54268,1,2
272,208,54386,1,0
304,240,54505,1,2
352,256,54625,1,0
400,256,54744,1,2
448,240,54863,1,0
480,208,54982,1,2
192,176,55458,6,0,B|144:240|208:304,1,135
320,192,55934,2,0,B|432:192|464:64,1,202.49999396503
304,96,56291,2,0,B|144:64|64:112,1,202.49999396503
288,208,56649,2,0,B|400:208|432:80,1,202.49999396503
448,240,57006,2,0,B|288:208|208:256,1,202.49999396503
176,160,57364,2,0,B|256:176|368:272,1,202.49999396503
64,96,57841,5,0
80,224,58079,2,0,B|192:208,1,101.249996982515
256,208,58317,1,0
400,208,58556,1,0
400,208,58675,1,0
272,112,59032,2,0,B|368:64,1,101.249996982515
432,80,59270,6,0,B|384:144|400:224,1,135
224,288,59746,2,0,B|336:288|368:160,1,202.49999396503
256,144,60103,2,0,B|96:112|16:160,1,202.49999396503
112,256,60461,2,0,B|224:256|256:128,1,202.49999396503
464,320,60818,2,0,B|304:288|224:336,1,202.49999396503
256,192,61177,12,4,63083
