osu file format v9

[General]
AudioFilename: Yukki.mp3
AudioLeadIn: 0
PreviewTime: -1
Countdown: 0
SampleSet: Soft
StackLeniency: 0.7
Mode: 0
LetterboxInBreaks: 1

[Editor]
DistanceSpacing: 0.8
BeatDivisor: 4
GridSize: 16

[Metadata]
Title:Yuki Yuki Yuki
Artist:Nico Nico Douga
Creator:Dariuski
Version:Hard
Source:
Tags:

[Difficulty]
HPDrainRate:5
CircleSize:4
OverallDifficulty:5
ApproachRate:5
SliderMultiplier:1.8
SliderTickRate:2

[Events]
//Background and Video events
0,0,"mirai_nikki_04002.jpg"
Video,0,"Yukki video.flv"
//Break Periods
//Storyboard Layer 0 (Background)
//Storyboard Layer 1 (Fail)
//Storyboard Layer 2 (Pass)
//Storyboard Layer 3 (Foreground)
//Storyboard Sound Samples
//Background Colour Transformations
3,100,163,162,255

[TimingPoints]
2092.42857142857,476.490476190476,4,2,0,100,1,0
17340,-66.6666666666667,4,2,0,100,0,0
17816,-83.3333333333333,4,2,0,100,0,0
24725,-66.6666666666667,4,2,0,100,0,0
25439,-83.3333333333333,4,2,0,100,0,0
28775,-66.6666666666667,4,2,0,100,0,0
29132,-83.3333333333333,4,2,0,100,0,0
32468,-100,4,2,0,100,0,0
47835,-66.6666666666667,4,2,0,100,0,0
48192,-83.3333333333333,4,2,0,100,0,0
55102,-66.6666666666667,4,2,0,100,0,0
55697,-83.3333333333333,4,2,0,100,0,0
59271,-66.6666666666667,4,2,0,100,0,0
59747,-83.3333333333333,4,2,0,100,0,0

[Colours]
Combo1 : 167,88,116
Combo2 : 255,0,255
Combo3 : 255,128,255
Combo4 : 109,67,105

[HitObjects]
256,64,1854,1,0
256,64,2092,1,4
336,112,2330,1,0
400,208,2688,1,0
336,272,2926,1,0
240,320,3164,1,0
80,304,3521,1,0
80,208,3760,5,0
144,128,3998,2,2,B|96:80,6,45
240,80,4951,5,2
336,128,5189,2,2,B|416:112,2,45
448,64,5904,1,8
448,192,6380,1,8
432,272,6619,5,0
352,288,6857,1,8
256,288,7095,2,8,B|256:224,2,45
96,304,7810,5,0
32,224,8048,1,0
64,128,8286,1,0
160,160,8525,5,8
256,112,8763,2,8,B|256:64,4,45
368,128,9478,1,8
432,224,9716,5,4
352,288,9954,2,0,B|256:288,1,90
176,240,10431,1,0
240,160,10669,1,0
240,160,10907,1,0
160,80,11145,1,0
160,80,11383,1,0
96,176,11622,6,2,B|144:240,2,60
192,192,12098,1,0
208,272,12336,1,2
288,272,12575,6,0,B|320:144|288:96|288:96,1,180
176,112,13528,1,2
176,176,13766,1,2
176,240,14004,1,2
288,192,14242,1,2
288,192,14481,1,2
400,128,14838,2,2,B|336:112,1,45
256,64,15195,1,0
160,64,15434,5,8
160,288,15910,1,8
352,288,16387,1,8
352,64,16863,1,8
160,80,17340,6,0,B|112:144|64:224,1,134.999995976687
192,192,17816,2,0,B|192:176|256:64,1,108.000002574921
320,112,18173,2,0,B|464:80|464:80,1,108.000002574921
432,160,18531,2,0,B|288:192|288:192,1,108.000002574921
336,256,18888,2,0,B|240:336|208:336,1,108.000002574921
176,320,19246,2,0,B|144:240|176:176,1,108.000002574921
256,192,19722,12,0,21152
32,176,21628,2,0,B|32:160|96:48,1,108.000002574921
160,80,21985,2,0,B|304:48|304:48,1,108.000002574921
352,64,22343,2,0,B|464:128|464:128,1,108.000002574921
448,224,22700,2,0,B|352:304|336:320,1,108.000002574921
272,304,23058,2,0,B|208:272|128:240,1,108.000002574921
192,160,23534,5,8
272,160,23772,1,0
352,160,24010,1,8
432,160,24249,1,0
432,240,24487,1,8
128,160,24963,6,0,B|80:224|48:304,1,134.999995976687
160,320,25439,2,0,B|160:304|224:192,1,108.000002574921
256,160,25796,2,0,B|400:128|400:128,1,108.000002574921
352,64,26154,2,0,B|208:96|208:96,1,108.000002574921
176,112,26511,2,0,B|64:128|48:192,1,108.000002574921
96,224,26869,2,0,B|176:224|224:272,1,108.000002574921
240,320,27346,5,0
304,256,27584,2,0,B|304:192,2,54.0000012874604
400,224,28061,1,0
400,224,28180,1,0
400,48,28776,6,0,B|336:64|320:160,1,134.999995976687
240,192,29252,2,0,B|240:176|144:128,1,108.000002574921
96,192,29609,2,0,B|224:272|224:272,1,108.000002574921
272,272,29967,2,0,B|320:208|384:288,1,108.000002574921
416,208,30324,2,0,B|448:160|448:80,1,108.000002574921
256,192,30681,12,0,32349
256,192,32587,1,4
352,160,32825,1,0
400,112,33183,1,0
304,64,33421,1,0
192,64,33659,1,0
80,112,34016,1,0
96,224,34255,5,0
192,272,34493,2,2,B|224:320,6,45
320,256,35446,5,2
400,192,35684,2,2,B|480:176,2,45
416,64,36399,1,8
480,160,36875,1,8
464,256,37114,5,0
368,272,37352,1,8
256,224,37590,2,8,B|256:160,2,45
160,160,38305,1,0
160,160,38543,1,0
160,160,38781,1,0
256,96,39020,5,8
256,96,39258,1,8
352,96,39496,1,8
352,96,39735,1,8
416,176,39973,1,8
400,256,40211,5,4
304,288,40449,2,0,B|208:288,1,90
128,224,40926,1,0
128,112,41164,1,0
128,112,41402,1,0
240,80,41640,1,0
320,160,41878,1,0
400,80,42117,6,2,B|448:128,2,60
384,176,42594,1,0
448,240,42831,1,2
336,256,43070,6,0,B|224:144|160:160|160:160,1,180
160,272,43784,2,2,B|96:208,3,90
144,128,44738,1,2
224,80,44976,1,2
368,96,45333,2,2,B|384:48,1,45
448,128,45690,1,0
400,192,45929,5,8
256,304,46405,1,8
128,192,46882,1,8
256,80,47358,1,8
464,176,47835,6,0,B|416:272|416:320,1,134.999995976687
352,256,48311,2,0,B|352:240|416:128,1,108.000002574921
272,224,48668,2,0,B|320:128|320:128,1,108.000002574921
240,96,49026,2,0,B|176:224|176:224,1,108.000002574921
112,160,49383,2,0,B|80:272|80:304,1,108.000002574921
160,304,49741,2,0,B|224:288|304:304,1,108.000002574921
256,192,50217,12,0,51647
192,192,52123,2,0,B|192:176|256:64,1,108.000002574921
320,112,52480,2,0,B|464:80|464:80,1,108.000002574921
432,160,52838,2,0,B|288:192|288:192,1,108.000002574921
336,256,53195,2,0,B|240:336|208:336,1,108.000002574921
176,320,53553,2,0,B|144:240|176:176,1,108.000002574921
96,128,54029,5,0
176,80,54267,2,0,B|240:48,6,54.0000012874604
144,208,55458,6,0,B|96:272|80:336,1,134.999995976687
176,336,55934,2,0,B|176:320|240:208,1,108.000002574921
320,240,56291,2,0,B|464:208|464:208,1,108.000002574921
416,128,56649,2,0,B|272:160|272:160,1,108.000002574921
240,112,57006,2,0,B|144:192|112:192,1,108.000002574921
80,176,57364,2,0,B|48:96|80:32,1,108.000002574921
160,64,57841,5,0
256,112,58080,2,0,B|240:32,2,54.0000012874604
336,64,58556,1,0
336,64,58675,1,0
384,208,59271,6,0,B|320:304|320:352,1,134.999995976687
256,288,59747,2,0,B|256:272|240:160,1,108.000002574921
240,112,60104,2,0,B|112:96|112:96,1,108.000002574921
112,176,60462,2,0,B|80:288|80:288,1,108.000002574921
160,304,60819,2,0,B|208:240|240:176,1,108.000002574921
256,192,61176,12,4,63083
