osu file format v9

[General]
AudioFilename: Yukki.mp3
AudioLeadIn: 0
PreviewTime: -1
Countdown: 0
SampleSet: Soft
StackLeniency: 0.7
Mode: 0
LetterboxInBreaks: 1

[Editor]
DistanceSpacing: 0.8
BeatDivisor: 4
GridSize: 16

[Metadata]
Title:Yuki Yuki Yuki
Artist:Nico Nico Douga
Creator:Dariuski
Version:Easy
Source:
Tags:

[Difficulty]
HPDrainRate:2
CircleSize:4
OverallDifficulty:3
ApproachRate:3
SliderMultiplier:1.8
SliderTickRate:2

[Events]
//Background and Video events
0,0,"mirai_nikki_04002.jpg"
Video,0,"Yukki video.flv"
//Break Periods
//Storyboard Layer 0 (Background)
//Storyboard Layer 1 (Fail)
//Storyboard Layer 2 (Pass)
//Storyboard Layer 3 (Foreground)
//Storyboard Sound Samples
//Background Colour Transformations
3,100,163,162,255

[TimingPoints]
2092.42857142857,476.490476190476,4,2,0,100,1,0
17816,-100,4,2,0,100,0,0
24725,-100,4,2,0,100,0,0
25379,-83.3333333333333,4,2,0,100,0,0
28775,-100,4,2,0,100,0,0
29132,-83.3333333333333,4,2,0,100,0,0
32468,-100,4,2,0,100,0,0
48192,-100,4,2,0,100,0,0
55102,-100,4,2,0,100,0,0
55697,-83.3333333333333,4,2,0,100,0,0
59270,-100,4,2,0,100,0,0
59747,-83.3333333333333,4,2,0,100,0,0

[Colours]
Combo1 : 167,88,116
Combo2 : 255,0,255
Combo3 : 255,128,255
Combo4 : 109,67,105

[HitObjects]
256,64,2092,1,4
336,128,2568,1,0
272,208,3045,1,0
192,144,3521,1,0
192,288,3998,2,2,B|112:224,2,90
304,288,4951,5,0
304,176,5427,1,0
208,272,5904,2,2,B|208:176,2,90
96,272,6857,2,2,B|96:176,2,90
208,272,7810,1,8
272,176,8286,1,8
336,64,8763,1,8
416,160,9239,1,8
400,272,9716,5,4
288,288,10192,2,0,B|240:240|224:192,2,90
144,304,11145,1,0
64,224,11622,6,2,B|160:160,2,90
16,112,12575,6,0,B|48:32|176:32|176:32,1,180
288,64,13528,1,2
384,128,14004,1,2
352,224,14481,1,2
256,272,14957,1,2
192,192,15434,5,8
256,144,15910,1,8
320,192,16387,1,8
256,240,16863,1,8
336,320,17340,5,0
400,240,17816,2,0,B|400:144|352:96,2,135
336,320,18888,1,0
224,336,19246,1,0
272,240,19722,5,0
128,192,20199,1,0
80,64,20675,1,0
208,64,21152,5,0
336,64,21628,2,0,B|320:144|416:208,2,135
448,64,22700,1,0
336,64,23058,1,0
224,96,23534,5,8
144,160,24010,1,8
64,96,24487,1,8
64,224,24963,5,0
160,288,25440,2,0,B|160:272|352:288,2,162.000003862381
160,192,26512,1,0
160,288,26869,1,0
64,288,27346,5,0
192,208,27822,1,0
304,128,28299,1,0
432,208,28775,5,0
384,304,29252,2,0,B|272:256|208:240,2,162.000003862381
432,208,30324,1,0
336,192,30681,5,0
256,112,31158,1,0
176,192,31634,1,0
256,288,32111,1,0
256,192,32587,5,4
256,96,33063,1,0
352,96,33540,1,0
352,192,34016,1,0
304,288,34493,2,2,B|192:336,2,90
224,224,35446,5,0
144,160,35922,1,0
240,128,36399,2,2,B|240:32,2,90
336,144,37352,2,2,B|336:240,2,90
432,144,38305,1,8
432,256,38781,1,8
336,256,39258,1,8
336,144,39734,1,8
240,144,40211,5,4
176,224,40687,2,0,B|128:176|112:128,2,90
256,304,41640,1,0
352,240,42117,6,2,B|448:176,2,90
320,160,43070,6,0,B|288:80|160:80|160:80,1,180
80,192,44023,1,2
176,192,44499,1,2
272,192,44976,1,2
368,192,45452,1,2
320,256,45929,5,8
192,256,46405,1,8
192,128,46882,1,8
320,128,47358,1,8
432,80,47835,5,0
432,192,48311,2,0,B|432:288|384:336,2,135
432,80,49384,1,0
336,80,49741,1,0
336,192,50217,5,0
240,192,50694,1,0
144,192,51170,1,0
144,96,51647,5,0
240,96,52123,2,0,B|304:144|384:80,2,135
144,96,53196,1,0
144,192,53553,1,0
240,208,54029,5,8
240,320,54505,1,8
352,320,54982,1,8
448,240,55458,5,0
448,144,55934,2,0,B|448:128|256:144,2,162.000003862381
448,48,57007,1,0
448,144,57365,1,0
448,240,57841,5,0
336,240,58317,1,0
224,240,58794,1,0
288,144,59271,5,0
400,112,59747,2,0,B|368:32|240:32,3,162.000003862381
256,112,61176,5,0
176,192,61653,1,0
256,272,62129,1,0
336,192,62606,1,0
256,192,63083,5,4
