osu file format v5

[General]
AudioFilename: Windows vs. Angry German Kid.mp3
AudioLeadIn: 0
PreviewTime: 70935
Countdown: 0
SampleSet: Soft
StackLeniency: 0.7
Mode: 0
LetterboxInBreaks: 1

[Editor]
DistanceSpacing: 0.5
BeatDivisor: 8
GridSize: 8

[Metadata]
Title:Windows vs. AGK
Artist:Nico Nico Douga
Creator:Ryuukun
Version:Critical System Error
Source:Nico Video
Tags:Nico Angry German Kid

[Difficulty]
HPDrainRate:6
CircleSize:6
OverallDifficulty:7
SliderMultiplier:1.4
SliderTickRate:2

[Events]
//Background and Video events
0,0,"bluescreen-screensaver_3362.png"
Video,199,"Windows vs. Angry German Kid.avi"
//Break Periods
2,17231,20583
2,23231,26002
2,28070,36454
2,49941,50390
2,63876,75164
//Storyboard Layer 0 (Background)
//Storyboard Layer 1 (Fail)
//Storyboard Layer 2 (Pass)
//Storyboard Layer 3 (Foreground)
//Storyboard Sound Samples
//Background Colour Transformations
3,100,46,57,207

[TimingPoints]
3290,387.096774193548,4,2,0,100,1,0
16741,-100,4,2,0,0,0,0
17128,-100,4,2,0,100,0,0

[HitObjects]
256,192,15096,1,0
256,192,16838,1,0
256,192,17031,1,0
384,192,21483,5,0
368,192,21580,1,0
352,192,21676,1,0
336,192,21773,1,0
320,192,21870,1,0
304,192,21967,1,0
288,192,22064,1,0
272,192,22160,1,0
256,192,22257,1,0
240,192,22354,1,0
224,192,22451,1,0
208,192,22548,1,0
192,192,22644,1,0
176,192,22741,1,0
160,192,22838,1,0
144,192,22935,1,0
128,192,23031,1,0
256,280,26902,5,0
256,104,27870,1,0
256,192,37354,12,0,38902
256,64,39096,5,0
256,80,39193,1,0
256,96,39290,1,0
256,112,39386,1,0
256,128,39483,1,0
256,144,39580,1,0
256,160,39677,1,8
256,208,39967,1,8
256,256,40257,1,8
392,256,40644,5,0
408,248,40741,1,0
424,240,40838,1,0
432,224,40935,1,0
432,208,41031,1,0
432,192,41128,1,0
424,176,41225,1,0
408,160,41322,1,0
392,152,41419,1,0
376,152,41515,1,0
360,152,41612,1,0
344,152,41709,1,0
312,152,41902,1,8
296,152,41999,1,8
120,256,42193,5,0
104,248,42290,1,0
88,240,42387,1,0
80,224,42484,1,0
80,208,42580,1,0
80,192,42677,1,0
88,176,42774,1,0
104,160,42871,1,0
120,152,42968,1,0
136,152,43064,1,0
152,152,43161,1,0
168,152,43258,1,0
200,152,43451,1,8
216,152,43548,1,8
256,256,43741,5,0
256,240,43838,1,0
256,224,43935,1,0
256,208,44031,1,0
256,192,44128,1,0
256,176,44225,1,0
256,160,44322,1,0
256,144,44419,1,0
256,112,44612,1,2
256,56,44902,1,8
256,40,44999,1,8
256,192,45096,12,0,46064
40,192,46451,5,8
112,192,46838,1,8
112,208,46935,1,0
112,224,47031,1,0
168,224,47225,1,8
168,208,47322,1,0
168,192,47419,1,0
224,192,47612,5,8
240,192,47709,1,0
296,192,47902,1,8
296,176,47999,1,0
296,160,48096,1,8
352,160,48386,5,8
352,176,48483,1,8
400,176,48677,1,8
400,192,48773,1,0
400,224,48967,1,8
352,224,49160,1,8
352,240,49257,1,8
352,288,49548,5,0
336,288,49644,1,0
320,288,49741,1,4
256,192,51290,12,0,52838
256,192,53612,5,0
324,72,54386,2,0,B|184:72,3,140
376,120,55935,1,0
392,152,56128,1,2
400,184,56322,1,0
400,216,56515,1,2
392,248,56709,1,0
376,280,56902,1,2
184,312,57483,6,0,B|352:312,3,140
136,264,59031,1,0
120,232,59224,1,2
112,200,59418,1,0
112,168,59611,1,2
120,136,59805,1,0
136,104,59998,1,2
256,192,60580,5,0
256,120,60967,1,0
240,88,61160,2,0,B|288:88,2,35,0|0|0
200,88,61548,1,0
168,88,61741,1,4
168,248,62128,5,0
272,248,62709,2,0,B|320:248,2,35
328,192,63096,2,0,B|376:192,6,35,0|0|0|0|0|0|4
256,192,76064,12,0,78773
256,312,79160,5,0
240,296,79257,1,0
224,280,79354,1,0
208,264,79451,1,0
192,248,79548,1,2
232,216,79741,1,0
216,200,79838,1,2
248,168,80031,1,0
232,152,80128,1,2
256,120,80322,5,2
240,104,80419,1,0
224,88,80515,1,0
208,72,80612,1,0
192,72,80709,1,2
176,72,80806,1,0
160,72,80902,1,0
144,72,80999,1,0
128,72,81096,1,2
112,72,81193,1,0
96,72,81289,1,0
80,72,81386,1,0
64,72,81483,1,2
64,320,81870,5,4
384,320,82257,5,0
384,304,82354,1,0
384,288,82451,1,0
384,272,82548,1,0
384,256,82645,1,0
336,256,82838,1,0
336,240,82935,1,0
288,240,83128,1,0
288,224,83225,1,0
288,176,83419,5,0
272,176,83516,1,0
256,176,83612,1,0
240,176,83709,1,0
240,160,83806,1,0
240,144,83903,1,0
240,128,83999,1,0
256,128,84096,1,0
272,128,84193,1,0
288,128,84290,1,0
304,128,84386,1,0
320,128,84483,1,0
336,128,84580,1,0
56,32,84967,5,4
440,32,85354,5,0
432,48,85451,1,0
424,64,85548,1,0
416,80,85644,1,0
408,96,85741,1,2
400,112,85838,1,0
392,128,85935,1,0
384,144,86031,1,0
376,160,86128,1,0
368,176,86225,1,0
360,192,86322,1,0
352,208,86419,1,0
344,224,86515,1,2
336,240,86612,1,0
328,256,86709,1,0
320,272,86806,1,0
312,288,86902,1,0
296,288,86999,1,0
280,288,87096,1,0
264,288,87193,1,0
248,288,87289,1,2
232,288,87386,1,0
216,288,87483,1,0
200,288,87580,1,2
184,288,87677,1,2
152,288,87870,1,2
112,288,88064,1,2
56,112,88451,5,0
72,120,88548,1,0
88,128,88645,1,0
104,128,88741,1,0
120,120,88838,1,2
136,112,88935,1,0
152,112,89032,1,0
168,120,89128,1,0
184,128,89225,1,0
200,128,89322,1,0
216,120,89419,1,0
232,112,89516,1,0
248,112,89612,1,2
264,120,89709,1,0
280,128,89806,1,0
296,128,89903,1,0
312,120,89999,1,0
328,112,90096,1,0
344,112,90193,1,0
360,120,90290,1,0
376,128,90386,1,2
392,128,90483,1,0
408,120,90580,1,0
424,112,90677,1,0
440,112,90774,1,2
472,112,90967,1,2
472,144,91161,1,2
472,176,91354,1,2
368,296,91548,5,0
224,296,91741,1,0
312,192,91935,1,0
280,192,92031,1,2
184,192,92225,1,0
40,192,92419,1,0
96,88,92612,1,0
128,88,92708,1,2
216,88,92902,1,2
312,88,93096,5,0
456,88,93290,1,0
400,192,93483,1,0
368,192,93579,1,2
384,312,93773,1,0
344,312,93870,1,2
256,312,94064,1,2
168,312,94257,1,2
144,88,94644,5,0
288,88,94837,1,0
200,192,95031,1,0
232,192,95127,1,2
328,192,95321,1,0
472,192,95515,1,0
416,296,95708,1,0
384,296,95804,1,2
296,296,95998,1,2
200,296,96192,5,0
56,296,96386,1,0
112,192,96579,1,0
144,192,96675,1,2
128,72,96869,1,0
168,72,96966,1,2
256,72,97160,1,2
344,72,97353,1,2
472,192,97644,5,0
432,192,97838,1,0
416,192,97935,1,0
400,192,98031,1,0
384,192,98128,1,0
344,192,98322,1,0
344,208,98419,1,0
304,208,98612,1,0
224,208,98806,1,0
136,208,98999,1,0
256,112,99193,5,2
344,128,99386,1,0
360,120,99483,1,0
360,104,99580,1,0
344,96,99677,1,0
256,112,99967,1,2
168,128,100160,1,0
152,120,100257,1,0
152,104,100354,1,0
168,96,100451,1,0
64,192,100741,5,0
80,192,100838,1,0
96,192,100935,1,0
112,192,101031,1,0
128,192,101128,1,0
144,192,101225,1,0
160,192,101322,1,0
176,192,101419,1,0
192,192,101515,1,0
208,192,101612,1,0
224,192,101709,1,0
240,192,101806,1,0
256,192,101902,1,0
256,224,101999,6,4,B|256:288,3,35,8|8|8|8
288,256,102386,5,0
304,256,102483,1,0
320,256,102580,1,0
336,256,102677,1,0
352,256,102773,1,0
368,256,102870,1,0
384,256,102967,1,0
400,256,103064,1,0
400,240,103160,1,0
400,224,103257,1,0
400,208,103354,1,0
400,192,103451,1,0
400,176,103548,1,0
400,160,103644,1,0
400,144,103741,1,0
400,128,103838,1,4
