osu file format v6

[General]
AudioFilename: Nico Nico Douga Medley 2nd Track.mp3
AudioLeadIn: 0
PreviewTime: 198416
Countdown: 0
SampleSet: Normal
StackLeniency: 0.7
Mode: 0
LetterboxInBreaks: 0
StoryFireInFront: 0

[Editor]
Bookmarks: 23249,28583,39083,57916,63249,68416,76416,79083,100416,110749,121749,143749,164583,174583,180083,185749,198416,209249,219249,229416,252416,264749,265416,289749,295249,306416,319416,337249,347583,369583,379916,392583,396583,400583
DistanceSpacing: 1.20000004768372
BeatDivisor: 4
GridSize: 8

[Metadata]
Title:Urakumikyoku - Track 2
Artist:Nico Nico Douga
Creator:MarioBros777
Version:Osu!Marathon
Source:Nico Nico Douga Kumikyoku 2
Tags:Nico Douga 2 Urakumikyoku

[Difficulty]
HPDrainRate:5
CircleSize:5
OverallDifficulty:7
SliderMultiplier:1.6
SliderTickRate:1

[Events]
//Background and Video events
//Break Periods
2,27919,67653
2,76586,163653
2,174752,184986
2,197866,217986
2,252086,288986
2,295169,307653
2,319419,326486
2,347419,368403
2,379753,392986
//Storyboard Layer 0 (Background)
//Storyboard Layer 1 (Fail)
//Storyboard Layer 2 (Pass)
//Storyboard Layer 3 (Foreground)
//Storyboard Sound Samples
//Background Colour Transformations
3,100,163,162,255

[TimingPoints]
7850,625,4,1,0,100,1,0
19220,333.333333333333,4,1,0,100,1,0
110552,-100,4,1,0,100,0,0
218833,-100,4,1,0,70,0,0
223166,-50,4,1,0,70,0,0
224406,-100,4,1,0,75,0,0
289916,-100,4,1,0,70,0,0
308553,-50,4,1,0,70,0,0
313803,-50,4,1,0,70,0,0
327053,-100,4,1,0,70,0,0
337249,-100,4,1,0,70,0,0
405342,300,4,1,0,100,1,0

[HitObjects]
256,192,22886,1,0
296,192,22969,1,0
336,192,23053,1,0
376,192,23136,1,0
376,192,23219,2,0,B|376:312|272:312,1,175
278,311,23719,2,0,B|224:312|224:304,3,35
448,248,24553,5,0
448,104,24969,1,0
448,104,25053,1,0
448,104,25136,1,0
360,104,25303,1,0
256,208,25803,12,0,26803
256,64,27219,5,2
120,272,27469,1,2
392,272,27719,1,2
96,88,68553,5,0
96,192,68719,1,0
96,288,68886,1,0
256,192,69219,5,0
352,192,69386,1,0
448,192,69553,1,0
352,16,69886,5,0
352,96,70053,1,0
256,96,70219,1,0
160,96,70386,1,0
160,192,70553,1,0
160,288,70719,1,0
208,288,70803,1,0
256,288,70886,1,0
352,288,71053,1,0
352,192,71219,5,0
256,192,71386,1,0
352,192,71553,1,0
160,192,71886,5,0
64,192,72053,1,0
160,192,72219,1,0
352,192,72553,5,0
304,112,72719,1,0
256,32,72886,1,0
160,32,73053,1,0
208,112,73219,1,0
112,112,73386,1,0
88,152,73469,1,0
64,192,73553,1,0
160,192,73719,1,0
256,192,73886,5,0
208,112,74053,1,0
160,192,74219,1,0
352,192,74553,5,0
304,272,74719,1,0
256,192,74886,1,0
64,192,75219,5,0
160,192,75386,1,0
208,112,75553,1,0
256,192,75719,1,0
304,272,75886,1,0
352,192,76053,1,0
352,192,76136,1,0
352,192,76219,1,0
448,192,76386,1,0
256,192,164553,5,0
336,168,164719,1,2
408,120,164886,1,0
336,72,165053,1,2
256,40,165219,1,0
176,72,165386,1,2
104,120,165553,1,0
176,168,165719,1,2
256,192,165886,1,0
256,320,166136,1,0
360,248,166386,6,0,C|392:272|432:256,5,80,0|2|0|2|0|2
256,64,167719,2,2,C|256:152,2,80
152,248,168553,2,0,C|120:272|80:256,3,80,0|2|0|2
160,192,169219,5,4
256,328,169553,1,4
256,56,169886,1,4
464,192,170386,5,8
376,192,170553,1,0
288,192,170719,1,8
48,192,171053,1,8
136,192,171220,1,0
224,192,171386,1,8
256,352,171719,6,8,C|256:264,1,80
256,32,172053,2,8,C|256:112,1,80
136,224,172553,6,0,C|136:136,1,80,2|0
176,224,172886,2,0,C|176:136,1,80
224,224,173219,2,0,C|224:136,1,80,2|0
272,224,173553,2,0,C|272:136,1,80
320,224,173886,2,0,C|320:160,8,40,2|0|0|0|0|0|0|0|6
88,32,185886,5,0
424,32,186583,1,0
256,216,187083,1,0
160,328,187583,5,2
368,328,187916,1,2
368,72,188416,5,0
200,72,188749,2,0,C|120:72,1,70
32,72,189166,2,0,C|32:152|32:152,1,70
32,352,189749,1,0
200,352,190083,1,0
368,352,190416,1,0
368,184,190749,1,0
368,184,190916,1,0
160,192,191249,6,0,B|160:112|232:64|352:136,2,245
368,192,192749,1,0
368,192,192999,1,0
256,208,193416,12,0,193749
256,208,194083,12,0,194416
256,208,194749,12,0,195083
256,208,195416,12,0,195749
256,64,196416,5,0
256,288,197333,1,0
256,288,197666,1,0
448,96,218886,5,2
352,64,219053,1,0
256,96,219219,1,2
48,192,219553,5,2
144,240,219720,1,0
240,192,219886,1,2
448,288,220219,5,2
352,320,220386,1,0
256,288,220553,1,2
448,192,220886,5,2
328,120,221053,1,0
328,264,221219,1,6
64,192,221553,5,2
184,120,221720,1,0
184,264,221886,1,2
464,192,222219,5,2
368,240,222416,1,0
272,192,222582,1,2
256,64,222916,5,2
256,64,223083,1,2
256,64,223249,2,4,L|304:128|384:128|320:192|360:280|256:208|152:280|192:192|128:128|208:128|256:64,1,920
256,336,224583,5,8
352,192,224886,5,0
256,80,225053,1,0
160,192,225219,1,8
416,288,225553,5,0
336,336,225719,1,0
256,272,225886,1,8
176,336,226053,1,0
96,288,226219,5,0
256,272,226386,5,0
416,288,226553,5,8
208,64,226886,6,0,L|208:152,1,80
80,192,227219,1,8
304,64,227553,6,0,L|304:152,1,80
432,192,227886,1,8
256,192,228219,5,0
256,192,228386,1,4
256,208,228553,12,4,229553
224,64,229886,6,0,L|224:112|184:112,1,80
288,64,230219,2,0,L|288:112|328:112,1,80,8|0
192,160,230553,6,0,L|160:208|200:232,1,80,0|0
320,160,230886,2,0,L|352:208|312:232,1,80,8|0
256,304,231219,6,2,L|256:216,2,80
320,160,231719,1,2
192,160,231886,1,2
288,320,232553,6,0,L|288:272|320:272,1,80
224,320,232886,2,0,L|224:272|184:272,1,80,8|0
320,224,233220,6,0,L|352:176|312:152,1,80,0|0
192,224,233553,2,0,L|160:176|200:152,1,80,8|0
256,80,233886,6,2,L|256:160,2,80
192,224,234386,1,2
320,224,234553,1,2
256,80,234886,5,4
256,176,235053,1,8
328,336,235219,2,0,B|328:224|144:224,1,240,4|0
176,336,235886,2,0,B|176:224|360:224,1,240,4|0
432,128,236553,5,8
256,128,236886,1,8
80,128,237219,1,8
256,64,237553,5,0
256,64,237719,1,0
352,64,237886,2,0,B|352:176|168:176,1,240,4|0
160,64,238553,2,0,B|160:176|344:184,1,240,4|0
432,256,239220,5,8
256,256,239553,1,8
80,256,239886,1,8
256,320,240220,5,0
256,320,240386,1,0
256,320,240553,1,8
384,192,240886,1,0
384,192,241053,1,0
384,192,241219,1,8
128,192,241553,1,0
128,192,241719,1,0
128,192,241886,1,8
256,64,242219,5,2
256,192,242386,1,2
256,128,242553,1,6
165,101,242886,5,0
165,101,243052,1,0
165,101,243219,1,8
255,256,243552,1,0
255,256,243719,1,0
255,256,243885,1,8
346,101,244219,1,0
346,101,244385,1,0
346,101,244552,1,8
256,320,244885,5,2
256,192,245052,1,2
255,256,245219,1,6
192,320,245553,5,8
320,320,245719,1,8
256,320,245886,2,0,B|256:160,1,140,4|0
264,64,246386,6,0,B|208:96|192:0|112:64,2,160,2|2|4
400,64,247386,2,2,B|400:112|344:112,2,80
248,56,248553,6,0,B|304:96|320:0|400:64,2,160,2|2|4
112,64,249553,2,0,B|112:112|168:112,1,80,2|0
256,208,249886,12,4,251886
208,80,289886,6,0,B|144:80|144:176|208:176,1,140,12|0
256,128,290386,1,0
304,176,290553,2,0,B|368:176|368:272|304:272,1,140,8|0
256,224,291053,1,0
208,176,291220,2,0,B|144:176|144:288|208:288,2,160,8|0|8
256,48,292220,1,2
256,336,292553,6,0,B|304:320|288:256|336:224,1,140,12|0
336,160,293053,1,0
272,192,293219,2,0,B|224:208|272:256|208:288,2,105,8|0|0
272,128,293886,2,0,B|224:112|272:64|208:32,1,105,8|0
128,96,294386,2,2,B|16:96|16:288|128:288,1,280
152,72,308553,6,2,B|64:192|112:256|144:304|224:320|288:352|352:288|480:192|360:48|48:24|248:232,1,760
384,96,310219,2,2,B|448:192|400:256|368:304|288:320|224:352|160:288|32:192|128:48|384:48|240:232,1,720
256,208,311386,12,0,313219
240,56,313803,6,0,B|176:56|160:104|176:136|208:152|256:136|320:136|352:152|352:200|320:216|256:216|208:200|176:200|112:248|128:296|192:328|336:328|480:296|480:184|448:168|400:152|352:136|320:88|368:56|448:56|496:72|512:120|432:328|480:312|448:360|160:328,1,1080
164,323,315219,2,0,B|80:304|56:208,1,160
56,216,315553,2,0,B|54:143|70:79|118:47|166:31|262:31|342:31|438:63|470:111|422:175|390:191|342:207|278:207|230:191|182:175|134:207|128:144,1,760
136,168,316594,2,0,B|144:192|184:175|232:191|280:207|344:207|392:191|424:175|472:111|440:63|344:31|264:31|168:31|88:32|88:32|120:31|120:31,1,640
256,208,317553,12,4,319219
368,200,327386,5,0
368,344,327636,1,0
272,344,327803,1,0
272,296,327886,1,0
272,200,328053,1,0
368,200,328719,5,0
368,248,328803,1,0
272,248,328969,1,0
176,248,329136,1,0
176,200,329219,1,0
176,104,329386,1,0
368,104,329719,5,0
368,152,329803,1,0
368,200,329886,2,0,B|368:384|120:384|120:152,1,420
272,152,331053,5,0
320,152,331136,2,0,B|320:344|112:344|112:80|408:80,1,520
32,104,332719,5,0
176,104,332969,1,0
272,104,333136,1,0
320,104,333219,1,0
416,104,333386,1,0
160,232,334053,5,0
112,232,334136,1,0
112,136,334303,1,0
208,144,334470,1,0
256,144,334553,1,0
352,144,334720,1,0
352,256,335053,6,0,B|296:256,1,40
264,256,335219,2,0,B|128:256|128:256|128:112|128:112|296:112,1,440
376,376,336386,5,0
376,328,336469,1,0
376,280,336553,1,0
80,280,337053,1,0
64,192,337219,6,0,B|152:192,1,80
232,192,337553,2,0,B|232:224|312:224,2,80
456,0,338386,2,0,B|456:80,1,70
456,376,339053,5,0
456,328,339136,1,0
456,280,339220,1,0
456,80,339553,1,0
256,72,339886,1,0
256,216,340136,1,0
112,216,340386,1,0
112,120,340553,1,0
208,120,340719,1,0
256,120,340803,1,0
16,56,341386,6,0,B|16:144,3,80
112,120,342053,1,0
160,120,342136,1,0
112,200,342886,5,0
112,384,343219,1,0
432,32,344053,5,0
432,128,344219,1,0
432,224,344386,1,0
384,224,344469,1,0
16,96,345386,6,0,B|16:128|72:128,1,70
168,128,345719,1,0
192,48,346053,5,0
256,48,346219,1,2
320,48,346386,1,0
352,112,346553,2,0,B|312:144|272:104,1,80,2|0
216,112,346886,2,0,B|176:144|136:104,1,80,2|0
256,192,347219,1,4
256,208,369303,12,4,369886
256,112,370219,5,8
160,192,370386,1,0
208,288,370553,1,0
304,288,370719,1,0
352,192,370886,1,8
256,192,371053,6,0,B|184:120,1,80
256,192,371386,2,0,B|328:120,1,80,0|8
256,192,371719,2,0,B|256:280,1,80
256,208,371969,12,4,372553
256,272,372886,5,8
160,192,373053,1,0
208,96,373220,1,0
304,96,373386,1,0
352,192,373553,1,8
256,192,373720,6,0,B|192:256,1,80
256,192,374053,2,0,B|328:264,1,80,0|8
256,192,374386,2,0,B|256:104,1,80
256,208,374636,12,4,375219
352,144,375553,5,0
256,96,375719,1,0
160,144,375886,1,2
256,192,376053,1,2
160,240,376219,1,2
256,288,376386,1,2
352,240,376553,1,2
256,96,376886,1,2
160,240,377219,1,6
256,208,377386,12,4,379553
256,192,393886,5,0
256,192,394219,1,0
256,192,394553,1,0
256,192,394719,1,0
256,192,394886,1,0
256,192,395053,1,0
256,192,395386,1,0
256,192,395553,1,0
256,192,395719,1,0
256,192,395886,1,0
256,192,396219,1,0
256,192,396553,1,4
