osu file format v13

[General]
AudioFilename: Yuru Yuri~.mp3
AudioLeadIn: 3
PreviewTime: 16305
Countdown: 0
SampleSet: None
StackLeniency: 0.7
Mode: 0
LetterboxInBreaks: 1
WidescreenStoryboard: 1

[Editor]
Bookmarks: 355,2480,4480,6480,8230,12480,13730,16105,18105,19730,20480,22480,23730,24480,25980,27730,28480,30230,31730,32480,34480,36480,38730,40480,42480,44605,46355,47480,49355,55730,55980,56480,56980,57480,58355,60480,62230,64480,66230,66980,67980,70480,71230,72230,72980,74605,78230,80230,82480,84480,86480,86980,87480,87980,88480,89730,90980,91480
DistanceSpacing: 1.2
BeatDivisor: 2
GridSize: 16
TimelineZoom: 1

[Metadata]
Title:Sutakora Amusement Club
TitleUnicode:すたこらごらく部 を歌った
Artist:Nico Nico Douga
ArtistUnicode:Nico Nico Douga
Creator:Ms Yuyuko
Version:Easy!
Source:Yuru Yuri
Tags:yuru yuri sakurako himawari kyoko ayano chitose yui akarin sutakora
BeatmapID:499178
BeatmapSetID:206332

[Difficulty]
HPDrainRate:2
CircleSize:2
OverallDifficulty:1
ApproachRate:2
SliderMultiplier:1.4
SliderTickRate:1

[Events]
//Background and Video events
0,0,"background.jpg",0,0
Video,0,"yuri.avi"
//Break Periods
2,7804,14795
//Storyboard Layer 0 (Background)
//Storyboard Layer 1 (Fail)
//Storyboard Layer 2 (Pass)
//Storyboard Layer 3 (Foreground)
//Storyboard Sound Samples
//Background Colour Transformations
3,100,163,162,255

[TimingPoints]
605,500,4,2,1,75,1,0
16355,-100,4,2,1,75,0,0
31730,-100,4,2,2,75,0,0
32230,-100,4,2,1,75,0,0
44605,-100,4,2,1,75,0,1
50730,-100,4,2,1,100,0,1
52480,-100,4,2,1,75,0,1
58605,-100,4,2,1,75,0,0
62605,-100,4,2,1,75,0,1
70605,-100,4,2,1,75,0,0
77730,-100,4,2,3,75,0,0
78230,-100,4,2,1,75,0,0
92355,-100,4,2,1,60,0,0
92730,-100,4,2,1,50,0,0
92980,-100,4,2,1,40,0,0
93230,-100,4,2,1,30,0,0
93480,-100,4,2,1,20,0,0
93730,-100,4,2,1,10,0,0
93980,-100,4,2,1,5,0,0

[Colours]
Combo1 : 85,135,207
Combo2 : 214,82,99
Combo3 : 235,149,219
Combo4 : 234,216,133
Combo5 : 84,63,81
Combo6 : 145,45,145
Combo7 : 241,241,241
Combo8 : 227,192,149

[HitObjects]
128,192,605,6,0,P|144:160|256:144,2,140,0|8|0,0:0|0:0|0:0,0:0:0:0:
288,224,2105,1,8,0:0:0:0:
416,128,2605,6,0,P|352:96|288:128,2,140,0|8|0,0:0|0:0|0:0,0:0:0:0:
400,288,4105,1,8,0:1:0:0:
256,192,4605,6,0,P|192:128|128:160,2,140,0|8|0,0:0|0:0|0:0,0:0:0:0:
336,336,6105,1,8,0:0:0:0:
176,304,6605,6,0,P|80:272|80:112,1,280,8|8,0:0|0:0,0:0:0:0:
96,192,16355,6,0,P|128:128|192:96,1,140,0|8,0:0|0:0,0:0:0:0:
352,96,17355,2,0,P|448:160|448:192,1,140,8|0,0:0|0:0,0:0:0:0:
288,224,18355,1,8,0:0:0:0:
128,288,18855,2,0,P|192:320|256:288,1,140,0|8,0:0|0:0,0:0:0:0:
192,224,19605,1,8,0:0:0:0:
78,110,20605,70,0,P|142:78|206:142,1,140,8|0,0:0|0:0,0:0:0:0:
352,64,21605,2,0,P|416:64|416:128,1,140,8|0,0:0|0:0,0:0:0:0:
384,288,22605,2,0,P|256:320|128:224,1,280,8|8,0:0|0:0,0:0:0:0:
192,64,24605,6,0,P|128:32|64:64,2,140,0|8|0,0:0|0:0|0:0,0:0:0:0:
320,192,26105,2,0,P|288:256|224:256,1,140,8|0,0:0|0:0,0:0:0:0:
96,160,27105,2,0,P|64:192|96:288,1,140,8|8,0:0|0:0,0:0:0:0:
352,64,28605,86,0,P|256:64|160:160,1,210,8|0,0:0|0:0,0:0:0:0:
96,192,29605,2,0,P|96:256|160:288,1,140,8|8,0:0|0:0,0:0:0:0:
320,288,30605,2,0,P|416:224|320:128,1,280,8|8,0:0|0:0,0:0:0:0:
416,128,32605,22,0,P|352:96|288:128,2,140,0|8|0,0:0|0:0|0:0,0:0:0:0:
160,128,34355,21,0,0:0:0:0:
128,224,34605,2,0,P|192:256|256:192,3,140,8|0|8|0,0:0|0:0|0:0|0:0,0:0:0:0:
416,256,36605,6,0,P|448:192|384:128,1,140,8|0,0:0|0:0,0:0:0:0:
256,80,37605,2,0,P|192:80|128:144,1,140,8|0,0:0|0:0,0:0:0:0:
32,256,38605,2,0,P|96:288|160:224,3,140,0|8|0|8,0:0|0:0|0:0|0:0,0:0:0:0:
304,176,40605,85,10,0:0:0:0:
464,128,41105,2,0,P|432:64|368:96,1,140,0|10,0:0|0:0,0:0:0:0:
224,160,42105,1,0,0:0:0:0:
64,128,42605,2,0,P|32:160|64:256,2,140,10|0|10,0:0|0:0|0:0,0:0:0:0:
368,288,44605,70,0,P|432:224|400:160,1,140,8|0,0:0|0:0,0:0:0:0:
336,48,45605,2,0,P|272:48|240:112,2,140,8|0|8,0:0|0:0|0:0,0:0:0:0:
288,208,47105,2,0,P|224:240|160:176,2,140,8|0|8,0:0|0:0|0:0,0:0:0:0:
448,192,48605,2,0,P|480:128|416:64,1,140,8|0,0:0|0:0,0:0:0:0:
288,32,49605,2,0,P|224:32|160:96,2,140,8|0|8,0:0|0:0|0:0,0:0:0:0:
224,192,51105,1,8,0:0:0:0:
64,96,51605,1,8,0:0:0:0:
400,64,52605,22,0,P|432:128|400:192,2,140,8|0|8,0:0|0:0|0:0,0:0:0:0:
272,176,54105,1,8,0:0:0:0:
96,192,54605,2,0,P|128:256|192:288,1,140,8|0,0:0|0:0,0:0:0:0:
352,320,55605,2,0,P|416:288|416:224,1,140,8|0,0:0|0:0,0:0:0:0:
368,64,56605,6,0,P|304:32|240:64,1,140,8|0,0:0|0:0,0:0:0:0:
80,32,57605,101,8,0:0:0:0:
80,192,58105,5,8,0:0:0:0:
192,320,58605,101,0,0:0:0:0:
352,304,59105,2,0,P|432:256|432:192,2,140,8|0|8,0:0|0:0|0:0,0:0:0:0:
304,144,60605,6,0,P|240:112|176:160,1,140,8|0,0:0|0:0,0:0:0:0:
32,208,61605,2,0,P|80:256|176:240,2,140,8|0|8,0:0|0:0|0:0,0:0:0:0:
160,96,63105,69,0,0:0:0:0:
320,64,63605,1,8,0:0:0:0:
416,208,64105,1,0,0:0:0:0:
256,256,64605,5,8,0:0:0:0:
96,192,65105,1,0,0:0:0:0:
160,32,65605,1,8,0:0:0:0:
288,144,66105,1,0,0:0:0:0:
432,64,66605,37,8,0:0:0:0:
512,208,67105,5,0,0:0:0:0:
368,288,67605,1,8,0:0:0:0:
208,288,68105,69,0,0:0:0:0:
48,224,68605,1,8,0:0:0:0:
112,64,69105,1,0,0:0:0:0:
288,32,69605,2,0,P|368:48|384:112,1,140,8|8,0:0|0:0,0:0:0:0:
480,240,70605,86,0,P|448:320|384:304,1,140,8|0,0:0|0:0,0:0:0:0:
240,320,71605,22,0,P|208:336|128:256,1,140,8|0,0:0|0:0,0:0:0:0:
16,160,72605,5,8,0:0:0:0:
144,48,73105,86,0,P|192:0|256:32,1,140,8|0,0:0|0:0,0:0:0:0:
416,64,74105,2,0,P|464:96|480:192,1,140,8|0,0:0|0:0,0:0:0:0:
336,256,75105,6,0,P|288:288|208:240,1,140,8|0,0:0|0:0,0:0:0:0:
64,192,76105,2,0,P|96:112|128:128,1,140,8|0,0:0|0:0,0:0:0:0:
288,112,77105,1,8,0:0:0:0:
448,80,77605,1,0,0:0:0:0:
448,336,78355,22,0,P|384:368|320:304,1,140,0|8,0:0|0:0,0:0:0:0:
160,304,79355,2,0,P|96:320|48:256,1,140,8|0,0:0|0:0,0:0:0:0:
144,128,80355,1,8,0:0:0:0:
288,48,80855,2,0,P|384:64|384:112,1,140,0|8,0:0|0:0,0:0:0:0:
432,160,81605,1,8,0:0:0:0:
96,112,82605,70,0,P|144:48|192:80,1,140,8|0,0:0|0:0,0:0:0:0:
352,80,83605,2,0,P|432:96|432:144,1,140,8|0,0:0|0:0,0:0:0:0:
368,288,84605,2,0,P|240:336|96:256,1,280,8|8,0:0|0:0,0:0:0:0:
80,112,86605,69,8,0:0:0:0:
240,64,87105,5,0,0:0:0:0:
400,112,87605,101,8,0:0:0:0:
240,176,88105,5,0,0:0:0:0:
80,240,88605,102,0,P|128:304|208:304,1,140,8|0,0:0|0:0,0:0:0:0:
352,272,89605,1,8,0:0:0:0:
48,144,90605,5,8,0:0:0:0:
192,64,91105,101,0,0:0:0:0:
352,112,91605,5,8,0:0:0:0:
480,208,92105,2,0,P|400:256|352:240,1,140,0|8,0:0|0:0,0:0:0:0:
208,304,93105,1,8,0:0:0:0:
128,320,93355,2,0,P|80:304|80:272,1,70,0|8,0:0|0:0,0:0:0:0:
