osu file format v5

[General]
AudioFilename: Smoooch.mp3
AudioLeadIn: 0
PreviewTime: -1
Countdown: 1
SampleSet: Normal
StackLeniency: 0.7
Mode: 0
LetterboxInBreaks: 1
EditorBookmarks: 12316,22398,65355,65863,88909
EditorDistanceSpacing: 0.800000011920929

[Metadata]
Title:Smoooch
Artist:Nico Nico Douga
Creator:NickCole
Version:Tag3
Source:
Tags:

[Difficulty]
HPDrainRate:7
CircleSize:6
OverallDifficulty:7
SliderMultiplier:2.6
SliderTickRate:2

[Events]
//Background and Video events
//Break Periods
2,13532,14466
2,16921,21583
2,44712,50201
2,53524,54268
2,67419,75958
2,99615,109765
//Storyboard Layer 0 (Background)
//Storyboard Layer 1 (Fail)
//Storyboard Layer 2 (Pass)
//Storyboard Layer 3 (Foreground)
//Storyboard Sound Samples
//Background Colour Transformations
3,100,0,128,255

[TimingPoints]
15748,338.600451467269,4,1,0,69,1,0

[Colours]
Combo1 : 225,208,4
Combo2 : 0,128,192
Combo3 : 255,0,0

[HitObjects]
256,64,12699,1,0
416,288,13038,5,0
96,288,13377,5,0
256,64,15324,5,0
416,288,15494,5,0
96,288,15663,5,0
288,96,15747,6,0,B|416:288,1,195
352,288,16086,6,0,B|96:288,1,195
96,256,16425,6,0,B|224:96,1,195
416,288,22520,5,0
96,288,22858,5,0
256,64,23197,5,0
256,352,23535,5,0
96,128,23874,5,0
416,128,24213,5,0
416,352,24382,5,0
96,352,24551,5,0
96,96,24890,5,0
416,96,25059,5,0
416,352,25398,5,0
96,352,25736,5,0
256,96,25906,5,0
384,224,26244,5,0
256,320,26413,5,0
128,224,26583,5,0
256,192,26921,5,0
160,128,27260,5,0
352,128,27429,5,0
352,320,27683,5,0
160,320,27937,5,0
160,128,28276,5,0
352,128,28445,5,0
352,224,28614,5,0
256,224,28784,5,0
224,192,28953,5,0
288,192,29122,5,0
256,192,29292,5,0
256,192,29461,5,0
352,128,29630,5,0
352,128,29799,1,0
352,128,29884,1,0
352,128,30138,5,0
352,128,30223,1,0
256,160,30307,1,0
256,192,30477,1,0
256,192,30815,1,0
160,160,31154,5,0
160,160,31323,1,0
160,160,31492,1,0
128,96,31662,5,0
352,96,31831,1,0
352,288,32000,1,0
128,288,32339,1,0
256,192,32678,1,0
128,192,33016,1,0
352,288,33355,5,0
352,96,33693,1,0
128,96,33863,5,0
128,288,34032,5,0
192,160,34709,5,0
320,160,35048,1,0
320,288,35386,1,0
192,288,35556,5,0
256,224,35894,1,0
416,64,36064,6,0,B|416:352,2,260
384,64,37079,5,0
352,64,37249,1,0
320,64,37418,1,0
256,64,37757,1,0
192,64,38095,1,0
160,64,38264,1,0
128,64,38434,1,0
64,64,38603,1,0
288,224,40042,5,0
288,224,40296,1,0
320,224,40465,1,0
352,224,40634,1,0
384,224,40804,1,0
384,192,40973,5,0
384,160,41142,1,0
384,160,41312,1,0
384,128,41481,2,0,B|0:32,1,390
32,96,42158,5,0
64,128,42497,5,0
64,128,42666,1,0
96,160,42835,2,0,B|256:160,3,130
288,160,43682,5,0
256,192,44021,1,0
256,192,50962,5,0
256,64,51301,5,0
416,288,51639,5,0
96,288,51808,5,0
256,192,51978,5,0
256,192,52232,5,0
256,192,52401,1,0
256,192,52486,1,0
256,192,52570,1,0
256,192,52655,1,0
256,192,52740,1,0
256,192,52824,1,0
384,128,52994,5,0
256,128,53163,1,0
128,128,53332,1,0
160,160,55025,5,0
352,160,55110,5,0
256,256,55194,5,0
160,160,55279,5,0
352,160,55364,5,0
256,256,55448,5,0
160,160,55533,5,0
352,160,55618,5,0
256,256,55702,5,0
160,160,55787,5,0
352,160,55872,5,0
256,256,55956,5,0
160,160,56041,5,0
256,64,56210,5,0
384,256,56380,5,0
128,256,56718,5,0
256,192,56887,12,0,58750
224,160,58919,5,0
288,160,59088,5,0
288,224,59258,5,0
224,224,59427,5,0
224,224,59596,5,0
288,160,59766,5,0
224,160,59935,5,0
416,192,60104,5,0
256,352,60273,5,0
64,192,60443,5,0
256,192,61459,5,0
224,160,61628,5,0
288,160,61797,5,0
224,224,61966,5,0
288,224,62136,5,0
256,128,62220,2,0,B|256:32,1,65
320,192,62474,6,0,B|480:192,1,130
192,192,62728,6,0,B|0:192,1,130
256,128,63152,5,0
256,128,63321,1,0
256,128,63406,1,0
256,128,63490,1,0
256,128,63575,1,0
256,128,63659,1,0
256,128,63829,1,0
256,128,63998,1,0
256,128,64167,1,0
160,192,65860,5,0
192,128,66030,5,0
256,96,66199,5,0
320,128,66368,5,0
352,192,66538,5,0
320,256,66707,5,0
256,288,66876,5,0
192,256,67215,5,0
256,192,76696,5,0
160,96,77373,5,0
352,96,78050,5,0
352,256,78389,5,0
160,256,78558,5,0
256,96,78727,5,0
256,256,79235,5,0
160,96,79574,5,0
352,96,79912,5,0
352,256,80082,5,0
160,256,80420,5,0
352,96,80589,5,0
160,96,80759,5,0
352,256,81097,5,0
160,256,81436,5,0
352,96,81605,5,0
160,96,81944,5,0
256,128,82452,5,0
320,192,82621,5,0
256,256,82790,5,0
192,192,82960,5,0
256,128,83129,5,0
320,192,83298,5,0
256,192,83468,6,0,B|160:32|32:256,3,260
64,288,84653,5,0
128,288,84991,5,0
192,288,85330,5,0
224,288,85499,5,0
320,288,85668,5,0
384,288,85838,5,0
448,224,86007,5,0
448,160,86176,5,0
448,96,86346,5,0
384,96,86515,5,0
320,96,86684,5,0
320,32,86854,5,0
256,32,87023,5,0
192,32,87192,5,0
128,32,87361,5,0
128,96,87531,5,0
384,96,87869,5,0
256,352,88208,5,0
256,192,88547,5,0
128,96,88885,5,0
192,96,89224,1,0
192,96,89393,1,0
256,96,89562,5,0
384,96,90070,1,0
384,160,90409,1,0
384,224,90663,5,0
320,224,90917,1,0
256,224,91255,1,0
192,224,91425,5,0
192,288,91594,1,0
256,288,91933,1,0
320,288,92271,5,0
320,224,92441,1,0
320,160,92779,1,0
256,160,93118,5,0
256,224,93456,1,0
192,224,93626,1,0
192,160,93795,5,0
192,96,93964,1,0
256,96,94134,1,0
320,96,94218,5,0
256,160,94472,5,0
256,160,94557,1,0
256,160,94641,1,0
256,160,94726,1,0
256,160,94811,1,0
256,160,94895,1,0
128,192,95319,5,0
192,192,95488,1,0
256,192,95827,1,0
192,192,96165,1,0
128,192,96334,1,0
128,128,97012,5,0
128,192,97181,1,0
128,256,97350,1,0
128,192,97520,1,0
192,192,97689,1,0
256,160,98366,5,0
256,224,98874,1,0
320,192,99043,1,0
384,192,99382,1,0
256,192,110556,12,0,115635
