osu file format v7

[General]
AudioFilename: Second Heaven - Second Subway.mp3
AudioLeadIn: 1533
PreviewTime: 46043
Countdown: 1
SampleSet: Normal
StackLeniency: 0.6
Mode: 0
LetterboxInBreaks: 1

[Editor]
DistanceSpacing: 2
BeatDivisor: 8
GridSize: 4

[Metadata]
Title:Second Subway
Artist:Nico Nico Douga
Creator:Lunah
Version:Insane
Source:Kyoto City Tozai Subway Line
Tags:Second Heaven teara LRJulien Kaneko

[Difficulty]
HPDrainRate:7
CircleSize:4
OverallDifficulty:8
SliderMultiplier:1.8
SliderTickRate:1

[Events]
//Background and Video events
0,0,"Keihan_Rokujizo_Station.jpg"
Video,0,"Second_Subway.flv"
//Break Periods
2,71814,77508
//Storyboard Layer 0 (Background)
//Storyboard Layer 1 (Fail)
//Storyboard Layer 2 (Pass)
//Storyboard Layer 3 (Foreground)
//Storyboard Sound Samples
//Background Colour Transformations
3,100,163,162,255

[TimingPoints]
2554,402.684563758389,4,1,0,89,1,0
13829,-100,4,1,0,91,0,0
14030,-200,4,1,0,41,0,0
15540,-100,4,1,0,0,0,0
18661,-100,4,1,0,49,0,0
31446,-200,4,1,0,31,0,0
37688,-100,4,1,0,10,0,0
39147,-100,4,1,0,19,0,0
40809,-100,4,1,0,28,0,0
41664,-100,4,1,0,39,0,0
42470,-100,4,1,0,56,0,0
43023,-100,4,1,0,72,0,0
43426,-100,4,1,0,89,0,0
43879,-100,4,1,0,89,0,0
45641,-100,4,1,0,87,0,1
45691,-100,4,1,0,87,0,0
71010,-200,4,1,0,89,0,0
71815,-100,4,1,0,89,0,0
85909,-50,4,1,0,89,0,0
86312,-100,4,1,0,89,0,0
87319,-50,4,1,0,89,0,0
87923,-100,4,1,0,89,0,0
89533,-50,4,1,0,89,0,0
90540,-100,4,1,0,89,0,0
97486,-100,4,1,0,89,0,1
97587,-100,4,1,0,88,0,0
100809,-100,4,1,0,89,0,1
112889,-100,4,1,0,89,0,0
113191,-100,4,2,0,0,0,0

[Colours]
Combo1 : 107,0,215
Combo2 : 255,255,128
Combo3 : 4,4,213
Combo4 : 0,136,0

[HitObjects]
168,80,2554,2,0,B|248:32|344:80,1,180
256,320,3359,2,0,B|256:128,1,180
432,320,4164,6,0,B|496:304|464:208,2,90
80,320,4970,2,0,B|16:304|48:208,2,90
256,144,5775,6,0,B|256:336,2,180
256,144,6983,1,0
48,128,7386,6,0,B|48:320,1,180
464,128,8191,2,0,B|464:320,1,180
256,336,8996,5,0
256,152,9198,1,0
80,48,10406,5,0
256,48,10607,1,0
440,48,10809,1,0
256,320,12017,6,0,B|256:224,1,90
256,230,12419,1,0
256,48,12822,5,0
256,48,13023,1,0
256,48,13225,1,0
256,352,13627,5,0
256,352,13829,2,0,B|112:200|432:232|248:40,1,360
256,192,14886,12,0,18359
56,72,18661,6,0,B|176:72,1,90
256,72,19064,1,0
352,112,19265,1,8
384,216,19466,1,0
280,192,19668,1,0
352,112,19869,1,0
384,216,20070,1,8
320,304,20272,5,0
296,304,20372,1,8
272,304,20473,1,0
248,304,20574,1,8
224,304,20674,1,0
112,304,20876,2,0,B|88:264,1,45,0|0
56,160,21178,1,0
64,128,21278,1,0
88,104,21379,1,0
120,80,21480,1,0
120,80,21681,1,8
224,64,21882,5,8
224,64,21983,1,0
224,64,22084,1,8
224,64,22184,1,0
224,64,22285,1,8
328,80,22486,1,0
328,80,22587,1,0
264,168,22788,1,0
280,200,22889,1,0
272,232,22990,1,0
288,264,23090,1,0
288,264,23292,1,8
392,288,23493,6,0,B|424:248|400:192,1,90
176,288,23896,2,0,B|144:248|168:192,1,90
288,72,24298,1,0
168,56,25104,5,4
64,72,25305,2,0,B|16:160|112:200,2,135,0|0|0
64,72,26010,1,0
64,72,26111,1,0
168,56,26312,2,0,B|296:56,1,90,8|8
368,80,26715,5,0
432,168,26916,1,0
432,272,27117,2,0,B|216:272,1,180
184,352,27721,1,0
88,296,27923,1,8
168,224,28124,1,8
80,160,28325,5,0
160,88,28527,1,0
264,88,28728,2,0,B|384:88,1,90
456,120,29131,5,0
456,120,29332,1,0
392,208,29533,2,0,B|264:208,1,90,8|8
192,200,29936,6,0,B|136:232|184:288,4,90
336,40,31144,1,8
440,64,31547,6,0,B|496:144|456:256,1,180,4|0
64,64,33158,2,0,B|8:144|48:256,1,180
344,328,34768,6,0,B|256:368|152:320,1,180
344,56,36379,2,0,B|256:16|152:64,1,180
256,192,37990,5,4
456,336,39600,5,2
56,336,41211,5,0
256,192,42017,5,2
432,56,42822,5,0
72,56,43225,5,2
72,328,43627,5,0
432,328,44030,5,2
256,192,44433,12,4,45641
416,320,46043,5,0
456,224,46244,1,0
456,224,46345,1,0
456,224,46446,1,8
400,136,46647,1,0
400,136,46748,1,0
400,136,46849,1,8
312,72,47050,2,0,B|272:40|216:64,2,90
304,184,47654,5,0
312,296,47856,2,0,B|272:336|224:296,1,90,0|8
136,248,48258,1,0
136,248,48359,1,0
136,248,48460,1,8
48,184,48661,1,0
136,120,48862,1,0
48,184,49064,1,0
136,120,49265,5,0
240,120,49466,1,0
264,96,49567,1,0
296,80,49668,1,8
328,72,49768,1,0
360,64,49869,1,0
392,56,49970,1,0
424,56,50070,1,8
432,132,50272,2,0,B|432:260,2,90
432,218,50876,5,0
256,216,51077,1,8
80,216,51278,1,0
160,56,51480,1,8
256,216,51681,1,0
160,320,51882,2,0,B|272:320,1,90
360,320,52285,1,12
440,248,52486,5,0
440,136,52688,1,0
440,136,52788,1,8
440,136,52889,1,8
336,136,53090,1,8
336,136,53191,1,8
336,136,53292,1,0
232,136,53493,1,0
232,240,53694,2,0,B|104:240,1,90
32,240,54097,5,0
32,136,54298,1,8
56,112,54399,1,0
88,96,54500,1,8
120,88,54600,1,0
160,88,54701,1,0
192,88,54802,1,8
224,88,54902,1,0
300,88,55104,2,0,B|396:88,1,90,8|0
390,88,55507,1,0
388,160,55708,5,0
388,232,55909,1,8
388,232,56010,1,0
388,232,56111,1,8
388,232,56212,1,0
388,232,56312,1,8
388,232,56413,1,0
388,232,56513,1,8
316,232,56715,2,0,B|220:232,2,90
316,304,57319,5,0
136,304,57520,1,8
136,128,57721,1,0
316,128,57923,1,8
312,304,58124,5,0
24,304,58325,1,10
28,36,58527,1,2
296,36,58728,1,10
376,92,58929,6,0,B|376:220,1,90
296,240,59332,1,0
296,240,59533,1,0
188,240,59735,2,0,B|188:120,1,90
296,152,60137,1,0
296,152,60339,1,0
400,152,60540,6,0,B|400:304,2,135
400,48,61345,1,0
400,48,61547,1,0
296,48,61748,2,0,B|184:48,1,90
168,48,62050,1,8
128,48,62151,5,8
24,48,62352,1,0
24,152,62553,2,0,B|8:208|64:232,1,90
144,160,62956,1,0
256,160,63158,1,0
352,104,63359,2,0,B|384:152|352:200,1,90
424,280,63762,5,2
256,348,63963,1,0
252,168,64164,1,0
96,80,64366,1,0
96,80,64567,2,0,B|32:144|56:272,1,180,2|0
52,247,65171,5,0
52,247,65272,1,8
52,247,65372,1,8
160,256,65574,2,0,B|280:256,1,90
360,256,65976,1,0
472,256,66178,1,0
416,168,66379,1,0
360,256,66580,1,0
472,256,66782,1,0
416,168,66983,6,0,B|416:120|336:104,1,90
280,192,67386,2,0,B|232:184|216:112,1,90
288,48,67788,2,0,B|264:0|200:8,1,90
120,64,68191,1,0
120,64,68392,1,0
120,64,68493,1,8
120,64,68594,1,8
120,168,68795,5,0
120,272,68996,2,0,B|248:272,1,90
232,168,69399,1,0
232,168,69600,1,0
264,272,69802,2,0,B|360:272,1,90
464,312,70205,5,0
464,40,70406,1,0
196,44,70607,1,0
196,312,70809,1,0
464,312,71010,2,0,B|464:256,3,45,2|2|2|2
256,48,78258,5,0
256,232,78460,1,0
80,336,79668,5,0
256,336,79869,1,0
440,336,80071,1,0
256,64,81279,6,0,B|256:160,1,90
256,154,81681,1,0
256,336,82084,5,0
256,336,82285,1,0
256,336,82487,1,0
256,32,82889,5,0
256,32,83090,2,0,B|112:184|432:152|248:344,1,360
256,336,84701,5,0
168,280,84902,1,0
136,256,85003,1,8
152,224,85104,1,0
256,208,85305,1,0
256,176,85406,1,8
224,168,85507,1,0
120,128,85708,1,0
48,48,85909,2,0,B|248:48,1,180,0|8
336,56,86312,5,0
440,56,86513,1,0
440,96,86614,1,8
440,128,86715,1,0
440,160,86815,1,0
440,192,86916,1,0
440,232,87017,1,8
440,264,87117,1,0
368,344,87319,2,0,B|160:344,1,180
188,344,87721,1,0
80,344,87923,5,8
80,240,88124,1,8
56,216,88225,1,0
88,200,88325,1,8
64,176,88426,1,0
96,160,88527,1,8
72,136,88627,1,0
104,120,88728,1,8
128,16,88929,1,0
240,16,89131,1,8
344,16,89332,1,0
344,120,89533,6,0,B|144:120,1,180
368,200,89936,2,0,B|168:200,1,180,0|8
188,200,90339,1,0
40,40,90741,1,0
472,40,91144,5,4
472,184,91547,1,0
472,328,91949,1,0
328,328,92352,1,0
184,328,92755,5,0
112,328,92956,1,0
40,328,93158,1,0
40,256,93359,1,0
40,184,93560,1,0
40,112,93762,1,0
40,40,93963,1,0
112,40,94164,1,0
184,40,94366,5,0
216,40,94466,1,0
256,40,94567,1,0
296,40,94668,1,0
328,40,94768,1,0
368,40,94869,1,0
408,40,94970,1,0
440,40,95070,1,0
480,40,95171,5,0
480,72,95272,1,0
480,104,95372,1,0
480,144,95473,1,0
480,184,95574,1,0
480,216,95674,1,0
480,256,95775,1,0
480,288,95876,1,0
468,288,95976,6,0,B|436:288,1,22.5,0|0
440,288,96077,2,0,B|408:288,1,22.5
412,288,96177,2,0,B|380:288,1,22.5
384,288,96278,2,0,B|352:288,1,22.5
356,288,96379,2,0,B|323:288,1,22.5
328,288,96479,2,0,B|285:288,1,22.5
300,288,96580,2,0,B|268:288,1,22.5
272,288,96681,2,0,B|240:288,1,22.5
244,288,96782,6,0,B|204:288,1,22.5
216,288,96882,2,0,B|184:288,1,22.5
188,288,96983,2,0,B|156:288,1,22.5
160,288,97084,2,0,B|126:288,1,22.5
132,288,97184,2,0,B|89:288,1,22.5
104,288,97285,2,0,B|72:288,1,22.5
76,288,97386,2,0,B|42:288,1,22.5
48,288,97486,2,0,B|5:288,1,22.5
256,192,97788,12,4,100406
32,328,100809,5,0
56,224,101010,1,0
56,224,101111,1,0
56,224,101212,1,8
112,136,101413,1,0
112,136,101514,1,0
112,136,101615,1,8
200,72,101816,2,0,B|240:40|296:64,2,90
208,184,102420,5,4
200,296,102622,2,0,B|240:336|288:296,1,90,0|8
376,248,103024,1,0
376,248,103125,1,0
376,248,103226,1,8
464,184,103427,1,0
376,120,103628,1,0
464,184,103830,1,0
376,120,104031,5,4
272,120,104232,1,0
248,96,104333,1,0
216,80,104434,1,8
184,72,104534,1,0
152,64,104635,1,0
120,56,104736,1,0
88,56,104836,1,8
80,132,105038,2,0,B|80:260,2,90
80,224,105642,5,0
256,224,105843,1,8
432,224,106044,1,0
344,72,106246,1,8
256,224,106447,1,0
348,320,106648,2,0,B|236:320,1,90
152,320,107051,1,12
72,248,107252,5,0
72,136,107454,1,8
72,136,107554,1,0
72,136,107655,1,8
176,136,107856,1,8
176,136,107957,1,0
176,136,108058,1,8
280,136,108259,1,0
280,240,108460,2,0,B|408:240,1,90,0|8
480,240,108863,5,4
480,136,109064,1,0
456,112,109165,1,8
424,96,109266,1,0
392,88,109366,1,8
352,88,109467,1,0
320,88,109568,1,8
288,88,109668,1,0
216,88,109870,2,0,B|120:88,1,90
126,88,110273,1,0
128,160,110474,5,4
128,232,110674,1,8
128,232,110775,1,8
128,232,110876,1,0
128,232,110977,1,8
128,232,111077,1,8
128,232,111178,1,0
128,232,111278,1,8
200,232,111481,2,0,B|296:232,2,90
200,304,112085,5,6
376,304,112286,1,8
376,128,112487,1,2
192,128,112689,1,8
200,304,112890,1,6
256,192,113141,12,0,115305
